Tomb Raider: Лара Крофт / Tomb Raider (Роар Утхауг / Roar Uthaug) [2018 г., боевик, приключения, BDRip, 1080p] Dub + MVO Sub (Rus+ENG) + Original (Eng)

Ответить на тему
 
Автор
Сообщение

Пост 16-Июн-2018 11:26

[Q] 

SwordFish

Морской Волк

-Tomb Raider: Лара Крофт / Tomb Raider«Её легенда начинается»-- Производство: Великобритания, США, Metro-Goldwyn-Mayer, Warner Bros
Год выпуска: 2018 г.
Жанр: боевик, приключения
Продолжительность: 01:57:50
Мировая премьера: 2 марта 2018
Российская премьера: 15 марта 2018
Перевод 1: Профессиональный (полное дублирование) [Лицензия (BD CEE)]
Перевод 2: Профессиональный (многоголосый, закадровый) [HDrezka Studio]
Оригинальный аудиопоток: английский
Режиссёр: Роар Утхауг / Roar Uthaug-В ролях: Алисия Викандер, Доминик Уэст, Уолтон Гоггинс, Дэниэл Ву, Кристин Скотт Томас, Дерек Джекоби, Александр Виллауме, Тамер Барджаг, Эдриан Коллинз, Кинэн Эррисон, Андриан Мазив, Милтон Шорр, Ханна Джон-Кэймен, Питер Уэйсон, Сэмюэл Мак, Скай Янг, Билли Постлтуэйт, Рекха Джон-Чериян, Антонио Аакил, Эмили Кэри, Рэй Лим-Описание: Лара Крофт - весьма самостоятельная дочь эксцентричного искателя приключений, который пропал, едва она стала подростком. Теперь ей двадцать один, она бесцельно проживает свою жизнь, курьером рассекая на байке по забитым улицам восточного Лондона, а ее заработка едва хватает на оплату квартиры и занятий в колледже. Решительно настроенная пробиться сама, она отказывается брать на себя руководство глобальной империей отца, столь же категорично отвергая мысль о том, что он действительно пропал. Слыша советы о том, что ей нужно смириться с этим фактом и жить дальше после семи лет бесплодных поисков, Лара уже и сама не понимает, что же заставляет ее распутывать обстоятельства его таинственной смерти.-
Качество видео: BDRip
Контейнер: MKV
Стандарт разрешения: 1080p
Видео кодек: MPEG4 AVC
Аудио кодек: AC3
Видео: MPEG-4 AVC, 15000 Кбит/с, 1920x800, 23.976 FPS
Аудио #1: RUS (AC3, 6 ch, 448 Кбит/с, 48.0 kHz) Лицензия (BD CEE)
Аудио #2: RUS (AC3, 2 ch, 192 Кбит/с, 48.0 kHz) HDrezka Studio
Аудио #3: ENG (AC3, 6 ch, 448 Кбит/с, 48.0 kHz)
Cубтитры: RUS, ENG
Формат субтитров: softsub (SRT)
Доп. информация о субтитрах: русские (полные + форс.), английские (Full), английские (SDH), английские (SDH-Colored)
General
Unique ID : 248963910389774856577790552159986158242 (0xBB4CB47B7AA30E90BC252B5BBDC88AA2)
Complete name : D:\Films\Tomb.Raider.2018.1080p.BluRay.Master5.mkv
Format : Matroska
Format version : Version 4 / Version 2
File size : 13.2 GiB
Duration : 1 h 57 min
Overall bit rate : 16.1 Mb/s
Movie name : Tomb.Raider.2018.1080p.BluRay.Master5
Encoded date : UTC 2018-06-10 15:40:39
Writing application : mkvmerge v8.1.0 ('Psychedelic Postcard') 32bit
Writing library : libebml v1.3.1 + libmatroska v1.4.2
Cover : Yes
IsTruncated : Yes
Attachments : cover.jpg
Video
ID : 1
Format : AVC
Format/Info : Advanced Video Codec
Format profile : High@L4.1
Format settings : CABAC / 5 Ref Frames
Format settings, CABAC : Yes
Format settings, ReFrames : 5 frames
Codec ID : V_MPEG4/ISO/AVC
Duration : 1 h 57 min
Bit rate : 15.0 Mb/s
Width : 1 920 pixels
Height : 800 pixels
Display aspect ratio : 2.40:1
Frame rate mode : Constant
Frame rate : 23.976 (24000/1001) FPS
Color space : YUV
Chroma subsampling : 4:2:0
Bit depth : 8 bits
Scan type : Progressive
Bits/(Pixel*Frame) : 0.407
Stream size : 12.1 GiB (91%)
Title : Tomb.Raider.2018.1080p.BluRay.Master5
Writing library : x264 core 152 r2851kMod ba24899
Encoding settings : cabac=1 / ref=5 / deblock=1:-3:-3 / analyse=0x3:0x133 / me=umh / subme=11 / psy=1 / fade_compensate=0.00 / psy_rd=1.05:0.00 / mixed_ref=1 / me_range=48 / chroma_me=1 / trellis=2 / 8x8dct=1 / cqm=0 / deadzone=21,11 / fast_pskip=0 / chroma_qp_offset=-2 / threads=24 / lookahead_threads=4 / sliced_threads=0 / nr=0 / decimate=0 / interlaced=0 / bluray_compat=0 / constrained_intra=0 / bframes=8 / b_pyramid=2 / b_adapt=2 / b_bias=0 / direct=3 / weightb=1 / open_gop=0 / weightp=2 / keyint=240 / keyint_min=2 / scenecut=40 / intra_refresh=0 / rc=2pass / mbtree=0 / bitrate=15000 / ratetol=1.0 / qcomp=0.70 / qpmin=0 / qpmax=69 / qpstep=4 / cplxblur=20.0 / qblur=0.5 / ip_ratio=1.30 / pb_ratio=1.20 / aq=3:0.80
Language : English
Default : Yes
Forced : No
Audio #1
ID : 2
Format : AC-3
Format/Info : Audio Coding 3
Codec ID : A_AC3
Duration : 1 h 57 min
Bit rate mode : Constant
Bit rate : 448 kb/s
Channel(s) : 6 channels
Channel positions : Front: L C R, Side: L R, LFE
Sampling rate : 48.0 kHz
Frame rate : 31.250 FPS (1536 SPF)
Bit depth : 16 bits
Compression mode : Lossy
Stream size : 378 MiB (3%)
Title : Dub | DD 5.1 @ 448 kbps - Blu-ray CEE
Language : Russian
Service kind : Complete Main
Default : Yes
Forced : Yes
Audio #2
ID : 3
Format : AC-3
Format/Info : Audio Coding 3
Codec ID : A_AC3
Duration : 1 h 57 min
Bit rate mode : Constant
Bit rate : 192 kb/s
Channel(s) : 2 channels
Channel positions : Front: L R
Sampling rate : 48.0 kHz
Frame rate : 31.250 FPS (1536 SPF)
Bit depth : 16 bits
Compression mode : Lossy
Stream size : 162 MiB (1%)
Title : MVO (HDrezka Studio)
Language : Russian
Service kind : Complete Main
Default : No
Forced : No
Audio #3
ID : 4
Format : AC-3
Format/Info : Audio Coding 3
Codec ID : A_AC3
Duration : 1 h 57 min
Bit rate mode : Constant
Bit rate : 448 kb/s
Channel(s) : 6 channels
Channel positions : Front: L C R, Side: L R, LFE
Sampling rate : 48.0 kHz
Frame rate : 31.250 FPS (1536 SPF)
Bit depth : 16 bits
Compression mode : Lossy
Stream size : 378 MiB (3%)
Title : Original | DD 5.1 @ 448 kbps
Language : English
Service kind : Complete Main
Default : No
Forced : No
Text #1
ID : 5
Format : UTF-8
Codec ID : S_TEXT/UTF8
Codec ID/Info : UTF-8 Plain Text
Title : Forced
Language : Russian
Default : Yes
Forced : No
Text #2
ID : 6
Format : UTF-8
Codec ID : S_TEXT/UTF8
Codec ID/Info : UTF-8 Plain Text
Title : Blu-ray CEE
Language : Russian
Default : No
Forced : No
Text #3
ID : 7
Format : UTF-8
Codec ID : S_TEXT/UTF8
Codec ID/Info : UTF-8 Plain Text
Title : Full
Language : English
Default : No
Forced : No
Text #4
ID : 8
Format : UTF-8
Codec ID : S_TEXT/UTF8
Codec ID/Info : UTF-8 Plain Text
Title : SDH
Language : English
Default : No
Forced : No
Text #5
ID : 9
Format : UTF-8
Codec ID : S_TEXT/UTF8
Codec ID/Info : UTF-8 Plain Text
Title : SDH-Colored
Language : English
Default : No
Forced : No
Menu
00:00:00.000 : en:Chapter 01
00:05:08.891 : en:Chapter 02
00:10:40.056 : en:Chapter 03
00:16:01.669 : en:Chapter 04
00:20:57.214 : en:Chapter 05
00:27:01.161 : en:Chapter 06
00:32:53.388 : en:Chapter 07
00:37:43.636 : en:Chapter 08
00:43:36.155 : en:Chapter 09
00:49:28.757 : en:Chapter 10
00:55:40.086 : en:Chapter 11
01:00:08.479 : en:Chapter 12
01:05:07.528 : en:Chapter 13
01:10:51.121 : en:Chapter 14
01:17:03.368 : en:Chapter 15
01:25:01.262 : en:Chapter 16
01:35:37.815 : en:Chapter 17
01:39:38.889 : en:Chapter 18
01:48:05.061 : en:Chapter 19
01:52:37.751 : en:Chapter 20
Download / Скачать

Хотите скачать бесплатно? Зарегистрируйтесь на сайте (ссылка на регистрацию). Pirat.ca - самый быстрый торрент трекер в рунете!

Как скачивать  ·   Что такое торрент  ·   Рейтинг и ограничения

the_lame

Флибустьер

Пост 27-Июн-2018 22:28 (спустя 11 дней)

[Q] 

В играх сюжета больше, чем фильме.
[Профиль]  [ЛС] 
Показать сообщения:    
Ответить на тему

Текущее время: Сегодня 18:45

Часовой пояс: GMT + 4



Вы не можете начинать темы
Вы не можете отвечать на сообщения
Вы не можете редактировать свои сообщения
Вы не можете удалять свои сообщения
Вы не можете голосовать в опросах
Вы не можете прикреплять файлы к сообщениям
Вы не можете скачивать файлы

Майнать ▼