План побега 2 / Escape Plan 2: Hades (Стивен С. Миллер / Steven C. Miller) [2018 г., Боевик, Триллер, BDRip] MVO

Ответить на тему
 
Автор
Сообщение

Пост 28-Июн-2018 13:57

[Q] 

AlexDjas

Флибустьер

--План побега 2 / Escape Plan 2: Hades--«Он вернулся»-- Производство: Китай, США
Год выпуска: 2018 г.
Жанр: Боевик, Триллер
Продолжительность: 01:33:37
Мировая премьера: 13 июня 2018
Российская премьера: 28 июня 2018, «MEGOGO Distribution»
Перевод: Любительский (многоголосый, закадровый) [HDRezka Studio]
Режиссёр: Стивен С. Миллер / Steven C. Miller--В ролях: Дэйв Батиста, Байли Каррен, Сильвестр Сталлоне, Джейми Кинг, Уэс Чэтэм, Титус Уэлливер, Джесси Меткалф, Фифти Сент, Винсент Янг, Лидия Халл--Описание: Новая, самая современная тюрьма, из которой не сбежать. Ему снова брошен вызов! Он вернулся, чтобы выручить напарника и доказать, что для него нет невозможного. Добро пожаловать в АиД!-- Качество видео: BDRip
Контейнер: AVI
Видео кодек: XviD
Аудио кодек: AC3
Видео: 720x304 (2.37:1), 23.976 fps, XviD build 73 ~1892 kbps avg, 0.36 bit/pixel
Аудио: 48 kHz, AC3 Dolby Digital, 2/0 (L,R) ch, ~192 kbps
Cубтитры: отсутствуют
Общее
Полное имя : D:\торрент\Escape_Plan_2_Hades_2018_MVO_BDRip[pirat.ca].avi
Формат : AVI
Формат/Информация : Audio Video Interleave
Размер файла : 1,37 Гбайт
Продолжительность : 1 ч. 33 м.
Общий поток : 2094 Кбит/сек
Программа кодирования : VirtualDubModRus 1.5.10.2 (build 2542/release)
Библиотека кодирования : VirtualDubMod build 2542/release
Видео
Идентификатор : 0
Формат : MPEG-4 Visual
Профиль формата : Advanced Simple@L5
Настройки формата : BVOP1 / Custom Matrix
Параметр BVOP формата : 1
Параметр QPel формата : Нет
Параметр GMC формата : Без точки перехода
Параметр матрицы формата : Выборочная
Идентификатор кодека : XVID
Идентификатор кодека/Подсказка : XviD
Продолжительность : 1 ч. 33 м.
Битрейт : 1893 Кбит/сек
Ширина : 720 пикселей
Высота : 304 пикселя
Соотношение сторон : 2,35:1
Частота кадров : 23,976 (24000/1001) кадра/сек
Цветовое пространство : YUV
Субдискретизация насыщенности : 4:2:0
Битовая глубина : 8 бит
Тип развёртки : Прогрессивная
Метод сжатия : С потерями
Бит/(Пиксели*Кадры) : 0.361
Размер потока : 1,24 Гбайт (90%)
Библиотека кодирования : XviD 73
Аудио
Идентификатор : 1
Формат : AC-3
Формат/Информация : Audio Coding 3
Идентификатор кодека : 2000
Продолжительность : 1 ч. 33 м.
Вид битрейта : Постоянный
Битрейт : 192 Кбит/сек
Каналы : 2 канала
Расположение каналов : Front: L R
Частота : 48,0 КГц
Частота кадров : 31,250 кадров/сек (1536 SPF)
Битовая глубина : 16 бит
Метод сжатия : С потерями
Размер потока : 129 Мбайт (9%)
Выравнивание : Разделение по промежуткам
Продолжительность промежутка : 42 мс. (1,00 видеокадр)
Время предзагрузки промежутка : 500 мс.
ServiceKind/String : Complete Main
Download / Скачать

Хотите скачать бесплатно? Зарегистрируйтесь на сайте (ссылка на регистрацию). Pirat.ca - самый быстрый торрент трекер в рунете!

Как скачивать  ·   Что такое торрент  ·   Рейтинг и ограничения

Кристина119

Гроза морей

Пост 30-Июн-2018 13:52 (спустя 1 день 23 часа)

[Q] 

Ух ты старина Рембо (Рокки) снова в деле) Лови бочку
[Профиль]  [ЛС] 

diabolic

Шкипер

Пост 30-Июн-2018 18:27 (спустя 4 часа)

[Q] 

посмотрим старичка !! Лови бочку
[Профиль]  [ЛС] 

Ustas3003

Морской Волк

Пост 30-Июн-2018 20:49 (спустя 2 часа 21 минута)

[Q] 

Всем качать!!! Лови бочку думаю не разочаруюсь!
[Профиль]  [ЛС] 

tyulen29

Шкипер

Пост 03-Июл-2018 16:30 (спустя 2 дня 19 часов)

[Q] 

на разок сойдет...
[Профиль]  [ЛС] 

saper-007

Лоцман

Пост 04-Июл-2018 12:37 (спустя 20 часов)

[Q] 

Автору раздачи - респект за фильм. Авторам фильма - гнилые помидоры.
Очень странная поделка по мотивам первого фильма с частичной повторением сюжета и актеров. Не о какой проработке деталей и интриге (что особенно интересно в таких фильмах) речи не идет. Одно слово - поделка. На произведение не тянет, не тратьте время.
[Профиль]  [ЛС] 

Victorsalata

Корсар

Пост 07-Июл-2018 19:04 (спустя 3 дня)

[Q] 

Да, нет прежнего хайфа. но смотреть можно.
[Профиль]  [ЛС] 

shelby290

Флибустьер

Пост 08-Июл-2018 10:18 (спустя 15 часов)

[Q] 

Фильм получился посредственным...
[Профиль]  [ЛС] 

feldorius

Корсар

Пост 10-Июл-2018 17:04 (спустя 2 дня 6 часов)

[Q] 

Победитель в номинации "Самый скучный фильм за последний месяц" по моей оценке.
Первая часть - огонь. А это - хрень.
Спецэффекты на уровне начала 2000 годов.
Мне не понравился фильм.
[Профиль]  [ЛС] 

alexandrover

Штурман

Пост 12-Июл-2018 10:47 (спустя 1 день 17 часов)

[Q] 

Рейтинг 3,8 - значит нет смысла качать. Жаль.
[Профиль]  [ЛС] 

pan_tera

Корсар

Пост 15-Июл-2018 18:12 (спустя 3 дня)

[Q] 

Первый побег был шедевром, а второй пародия и бред полный. ёп
[Профиль]  [ЛС] 

левка

Корсар

Пост 16-Июл-2018 19:18 (спустя 1 день 1 час)

[Q] 

Супер! AlexDjas,
[Профиль]  [ЛС] 

koljan-2008

Флибустьер

5

Пост 17-Июл-2018 20:51 (спустя 1 день 1 час)

[Q] 

Да пофиг, что за коменты!Сейчас скачаю и гляну. Потом отпишусь

_________________
Нужно лишь верить в мечту. Искренне верить! И тогда всё получится!
[Профиль]  [ЛС] 

exelero07

Флибустьер

Пост Вчера 18:22 (спустя 1 день 21 час)

[Q] 

не сравнить с первым фильмом, да и шварца здесь нет.
[Профиль]  [ЛС] 
Показать сообщения:    
Ответить на тему

Текущее время: Сегодня 18:44

Часовой пояс: GMT + 4



Вы не можете начинать темы
Вы не можете отвечать на сообщения
Вы не можете редактировать свои сообщения
Вы не можете удалять свои сообщения
Вы не можете голосовать в опросах
Вы не можете прикреплять файлы к сообщениям
Вы не можете скачивать файлы

Майнать ▼