Первому игроку приготовиться / Ready Player One (Стивен Спилберг/Steven Spielberg) [2018 г., фантастика, детектив, приключения, боевик, WEB-DL, 1080р] MVO Sub (Rus) + Original (Eng)

Ответить на тему
 
Автор
Сообщение

Пост 29-Июн-2018 12:43

[Q] 

SwordFish

Корсар

-Первому игроку приготовиться / Ready Player One«Загрузи новую реальность»-- Производство: США, Amblin Entertainment, De Line Pictures, Farah Films & Management, Reliance Entertainment, Village Roadshow Pictures, Warner Bros. Pictures
Год выпуска: 2018 г.
Жанр: фантастика, детектив, приключения, боевик
Продолжительность: 02:19:56
Мировая премьера: 11 марта 2018
Российская премьера: 29 марта 2018, «Каро-Премьер»
Перевод: Профессиональный (многоголосый, закадровый) [HDRezka Studio без рекламы]
Оригинальный аудиопоток: английский
Режиссёр: Стивен Спилберг/Steven Spielberg-В ролях: Тай Шеридан, Оливия Кук, Бен Мендельсон, Лина Уэйте, ТиДжей Миллер, Саймон Пегг, Марк Райлэнс, Филип Чжао, Уин Морисаки, Ханна Джон-Кэймен, Ралф Айнесон, Сьюзэн Линч, Клер Хиггинс, Лоуренс Спэллман, Пердита Викс, Джоэль МакКормэк, Кит Коннор, Лео Хеллер, Линн Уилморт-Описание: 2045 год. В мире все плохо. Повсюду проституция, бандитизм, высокие налоги и недобор в армию. Человечество героически решило все проблемы, уйдя с головой в виртуальный мир компьютерной игры под названием OASIS. Здесь уже давно наступило светлое будущее, где от каждого - по способностям и каждому - по потребностям. Обладатель черного пояса по Контр-страйку Уэйд Уоттс и другие страждущие ищут в игре некое "пасхальное яйцо", которое спрятал создатель OASIS - эксцентричный триллионер Джеймс Холлидей, помешанный на культуре 80-х. Нашедшему гарантирован ежегодный шестинедельный оплачиваемый отпуск, тридцатичасовая рабочая неделя и выход на пенсию с пятидесяти лет. Но к прекрасному далёко уже тянет свои узловатые пальцы глава Innovative Online Industries, мечтающий сменить действующую систему free-to-play на pay-to-win и превратить всех игроков в узников крупного капитала.-
Качество видео: WEB-DL
Контейнер: MKV
Стандарт разрешения: 1080р
Видео кодек: MPEG4 AVC
Аудио кодек: AC3
Видео: MPEG4-AVC, 4582 Кбит/с, 1920x800, 23.976 FPS
Аудио #1: RUS AC3, 2 ch (Front: L R), 192 Кбит/с, 48.0 kHz
Аудио #2: ENG AC3, 6 ch (Front: L C R, Side: L R, LFE), 384 Кбит/с, 48.0 kHz,
Cубтитры: русские, английские
Формат субтитров: softsub (SRT)
Доп. информация о субтитрах: Русские (полные, форсированные), английские
General
Unique ID : 179006957193812147536253025904620353450 (0x86AB7C64AF2F22D9BA78AD405F1E37AA)
Complete name : D:\Films\Ready.Player.One.2018.WEB-DL.1080p.mkv
Format : Matroska
Format version : Version 4 / Version 2
File size : 5.04 GiB
Duration : 2 h 19 min
Overall bit rate : 5 160 kb/s
Movie name : Ready Player One 2018 from ExKinoRay
Encoded date : UTC 2018-06-18 02:56:54
Writing application : mkvmerge v7.3.0 ('Nouages') 64bit built on Oct 22 2014 18:53:34
Writing library : libebml v1.3.0 + libmatroska v1.4.1
Video
ID : 1
Format : AVC
Format/Info : Advanced Video Codec
Format profile : [email protected]
Format settings : CABAC / 5 Ref Frames
Format settings, CABAC : Yes
Format settings, ReFrames : 5 frames
Codec ID : V_MPEG4/ISO/AVC
Duration : 2 h 19 min
Bit rate : 4 582 kb/s
Width : 1 920 pixels
Height : 800 pixels
Display aspect ratio : 2.40:1
Frame rate mode : Constant
Frame rate : 23.976 (24000/1001) FPS
Color space : YUV
Chroma subsampling : 4:2:0
Bit depth : 8 bits
Scan type : Progressive
Bits/(Pixel*Frame) : 0.124
Stream size : 4.48 GiB (89%)
Language : English
Default : Yes
Forced : No
Color range : Limited
Color primaries : BT.709
Transfer characteristics : BT.709
Matrix coefficients : BT.709
Audio #1
ID : 2
Format : AC-3
Format/Info : Audio Coding 3
Codec ID : A_AC3
Duration : 2 h 19 min
Bit rate mode : Constant
Bit rate : 192 kb/s
Channel(s) : 2 channels
Channel positions : Front: L R
Sampling rate : 48.0 kHz
Frame rate : 31.250 FPS (1536 SPF)
Bit depth : 16 bits
Compression mode : Lossy
Delay relative to video : -42 ms
Stream size : 192 MiB (4%)
Title : MVO [HDRezka Studio]
Language : Russian
Service kind : Complete Main
Default : Yes
Forced : Yes
Audio #2
ID : 3
Format : AC-3
Format/Info : Audio Coding 3
Codec ID : A_AC3
Duration : 2 h 19 min
Bit rate mode : Constant
Bit rate : 384 kb/s
Channel(s) : 6 channels
Channel positions : Front: L C R, Side: L R, LFE
Sampling rate : 48.0 kHz
Frame rate : 31.250 FPS (1536 SPF)
Bit depth : 16 bits
Compression mode : Lossy
Delay relative to video : -42 ms
Stream size : 384 MiB (7%)
Title : Original
Language : English
Service kind : Complete Main
Default : No
Forced : No
Text #1
ID : 4
Format : UTF-8
Codec ID : S_TEXT/UTF8
Codec ID/Info : UTF-8 Plain Text
Duration : 2 h 8 min
Bit rate : 1 b/s
Count of elements : 34
Stream size : 1.26 KiB (0%)
Title : Forced
Language : Russian
Default : Yes
Forced : Yes
Text #2
ID : 5
Format : UTF-8
Codec ID : S_TEXT/UTF8
Codec ID/Info : UTF-8 Plain Text
Duration : 2 h 10 min
Bit rate : 92 b/s
Count of elements : 1411
Stream size : 88.3 KiB (0%)
Title : Full
Language : Russian
Default : No
Forced : No
Text #3
ID : 6
Format : UTF-8
Codec ID : S_TEXT/UTF8
Codec ID/Info : UTF-8 Plain Text
Duration : 2 h 8 min
Bit rate : 95 b/s
Count of elements : 1581
Stream size : 90.2 KiB (0%)
Title : Full v.2
Language : Russian
Default : No
Forced : No
Text #4
ID : 7
Format : UTF-8
Codec ID : S_TEXT/UTF8
Codec ID/Info : UTF-8 Plain Text
Duration : 2 h 8 min
Bit rate : 62 b/s
Count of elements : 1856
Stream size : 59.0 KiB (0%)
Title : Full
Language : English
Default : No
Forced : No
Menu
00:00:00.000 : en:1
00:09:49.798 : en:2
00:21:31.666 : en:3
00:34:19.141 : en:4
00:44:03.934 : en:5
00:58:29.174 : en:6
01:11:17.192 : en:7
01:21:53.745 : en:8
01:32:33.968 : en:9
Download / Скачать

Хотите скачать бесплатно? Зарегистрируйтесь на сайте (ссылка на регистрацию). Pirat.ca - самый быстрый торрент трекер в рунете!

Как скачивать  ·   Что такое торрент  ·   Рейтинг и ограничения

Кристина119

Гроза морей

Пост 30-Июн-2018 13:56 (спустя 1 день 1 час)

[Q] 

Спасибо, давно ждала качество Лови бочку
[Профиль]  [ЛС] 

sokol77

Шкипер

128

Пост 01-Июл-2018 19:02 (спустя 1 день 5 часов)

[Q] 

Мне понравилось, спецэффекты на уровне конечно Лови бочку Спасибо!!!
[Профиль]  [ЛС] 

Евгений Ефимов

Канонир

Пост 03-Июл-2018 15:48 (спустя 1 день 20 часов)

[Q] 

Спилберг как всегдав ударе!!! Тоже очень понравился фильм.
[Профиль]  [ЛС] 

Ishtori

Флибустьер

Пост 05-Июл-2018 06:34 (спустя 1 день 14 часов)

[Q] 

спасибо за раздачу! :)
[Профиль]  [ЛС] 

Victorsalata

Флибустьер

Пост 07-Июл-2018 19:00 (спустя 2 дня 12 часов)

[Q] 

Мне понравился. Отлично!
[Профиль]  [ЛС] 

vitaminka585

Лоцман

Пост 12-Июл-2018 22:05 (спустя 5 дней)

[Q] 

Большое спасибо. Еще не смотрел, но думаю фильм отличный. Всем качать!!!
[Профиль]  [ЛС] 

exelero07

Гроза морей

Пост 20-Июл-2018 23:55 (спустя 8 дней)

[Q] 

что-то одна анимация и компьютерные эффекты
На форуме  [Профиль]  [ЛС] 

Towelie

Флибустьер

13

Пост 26-Авг-2018 09:47 (спустя 1 месяц 5 дней)

[Q] 

Урааа, качество!!!
Лови бочку
[Профиль]  [ЛС] 
Показать сообщения:    
Ответить на тему

Текущее время: Сегодня 11:56

Часовой пояс: GMT + 4



Вы не можете начинать темы
Вы не можете отвечать на сообщения
Вы не можете редактировать свои сообщения
Вы не можете удалять свои сообщения
Вы не можете голосовать в опросах
Вы не можете прикреплять файлы к сообщениям
Вы не можете скачивать файлы

Майнать ▼