Рэмпейдж / Rampage (Брэд Пейтон / Brad Peyton) [2018 г., Фантастика, боевик, приключения, HDRip] Dub [iTunes] + Sub (Rus)

Ответить на тему
 
Автор
Сообщение

Пост 05-Июл-2018 13:03

[Q] 

MPS15

Лоцман

-Рэмпейдж / Rampage-- Производство: США
Год выпуска: 2018 г.
Жанр: Фантастика, боевик, приключения
Продолжительность: 01:47:14
Мировая премьера: 11 апреля 2018
Российская премьера: 12 апреля 2018, «Каро-Премьер»
Перевод: Профессиональный (полное дублирование) [iTunes]
Режиссёр: Брэд Пейтон / Brad Peyton-В ролях: Дуэйн Джонсон, Джеффри Дин Морган, Малин Акерман, Джо Манганьелло, Марли Шелтон, Уилл Юн Ли, Наоми Харрис, Джек Куэйд, Джейк Лэси, Бриэнн Хилл-Описание: Приматолог Дэвис Окойи предпочитает держаться подальше от людей и дружит с Джорджем, удивительно умным альфа-самцом - гориллой, которого он воспитывал с самого рождения. Но вышедший из-под контроля генетический эксперимент превращает послушную обезьяну в яростного монстра. Более того, вскоре обнаруживается, что существуют и другие модифицированные хищники. Пока свежесозданные чудовища превращают в руины Северную Америку, стирая с лица Земли все, что попадается у них на пути, Окойи вместе с опальным генным инженером пытается изобрести антидот, прорываясь по бесконечному полю боя не только, чтобы предотвратить глобальную катастрофу, но и спасти бесстрашное существо, которое когда-то было его другом.-
Качество видео: HDRip (BDRip 1080p)
Контейнер: AVI
Видео кодек: XviD
Аудио кодек: AC3
Видео: 720x304 (2.37:1), 23.976 fps, XviD build 73 ~1547 kbps avg, 0.29 bit/pixel
Аудио: 48 kHz, AC3 Dolby Digital, 3/2 (L,C,R,l,r) + LFE ch, ~384 kbps [iTunes]
Cубтитры: русские
Доп. информация о субтитрах: Русские форсированные (hardsub)
General
Format : AVI
Format/Info : Audio Video Interleave
File size : 1.45 GiB
Duration : 1 h 47 min
Overall bit rate : 1 941 kb/s
Writing application : VirtualDubMod 1.5.10.3 | www.virtualdub-fr.org || (build 2550/release)
Writing library : VirtualDubMod build 2550/release
Video #0
ID : 0
Format : MPEG-4 Visual
Format profile : Advanced Simple@L5
Format settings, BVOP : 1
Format settings, QPel : No
Format settings, GMC : No warppoints
Format settings, Matrix : Custom
Codec ID : XVID
Codec ID/Hint : XviD
Duration : 1 h 47 min
Bit rate : 1 548 kb/s
Width : 720 pixels
Height : 304 pixels
Display aspect ratio : 2.35:1
Frame rate : 23.976 (23976/1000) FPS
Color space : YUV
Chroma subsampling : 4:2:0
Bit depth : 8 bits
Scan type : Progressive
Compression mode : Lossy
Bits/(Pixel*Frame) : 0.295
Stream size : 1.16 GiB (80%)
Writing library : XviD 73
Audio #1
ID : 1
Format : AC-3
Format/Info : Audio Coding 3
Mode extension : CM (complete main)
Format settings, Endianness : Big
Codec ID : 2000
Duration : 1 h 47 min
Bit rate mode : Constant
Bit rate : 384 kb/s
Channel(s) : 6 channels
Channel positions : Front: L C R, Side: L R, LFE
Sampling rate : 48.0 kHz
Frame rate : 31.250 FPS (1536 spf)
Compression mode : Lossy
Stream size : 295 MiB (20%)
Alignment : Split accross interleaves
Interleave, duration : 42 ms (1.00 video frame)
Interleave, preload duration : 500 ms
Download / Скачать

Хотите скачать бесплатно? Зарегистрируйтесь на сайте (ссылка на регистрацию). Pirat.ca - самый быстрый торрент трекер в рунете!

Как скачивать  ·   Что такое торрент  ·   Рейтинг и ограничения



Последний раз редактировалось: MPS15 (2018-07-05 18:58), всего редактировалось 15 раз(а)

Пост 05-Июл-2018 20:15 (спустя 7 часов)

Топик был перенесен из форума Зарубежное Кино (Трюм) в форум Новинки (HD|DVD|BD| TV|SAT|PDTV| - Rips)
gross1978
 

clark

Флибустьер

Пост 10-Июл-2018 19:31 (спустя 5 дней)

[Q] 

зачет, глянем!!!

_________________
Последним смеётся тот, кто стреляет первым.
[Профиль]  [ЛС] 

Sector_X

311

Пост 11-Июл-2018 01:25 (спустя 5 часов)

[Q] 

Спасибо!!! Супер!

_________________

[Профиль]  [ЛС] 

vitaminka585

Лоцман

Пост 12-Июл-2018 22:08 (спустя 1 день 20 часов)

[Q] 

Большое спасибо, обязательно посмотрим. Ку три раза
[Профиль]  [ЛС] 

exelero07

Флибустьер

Пост 18-Июл-2018 23:34 (спустя 6 дней)

[Q] 

Бодрый фильм на вечер!
[Профиль]  [ЛС] 
Показать сообщения:    
Ответить на тему

Текущее время: Сегодня 18:44

Часовой пояс: GMT + 4



Вы не можете начинать темы
Вы не можете отвечать на сообщения
Вы не можете редактировать свои сообщения
Вы не можете удалять свои сообщения
Вы не можете голосовать в опросах
Вы не можете прикреплять файлы к сообщениям
Вы не можете скачивать файлы

Майнать ▼