Sпарта / Серии: 1-8 из 8 (Егор Баранов) [2016,драма детектив, SATRip-AVC]

Ответить на тему
 
Автор
Сообщение

Пост 09-Июл-2018 19:18

[Q] 

aleksan555

- Sпарта- Год выпуска: 2016
Страна: Россия | ПЦ "Среда"
Жанр: драма детектив
Продолжительность: ~00:53:00-Субтитры: нет-Режиссер:Егор Баранов-В ролях: Александр Петров , Артём Ткаченко, Алиса Лозовская, Валерия Шкирандо, Олег Гаас, Яна Енжаева, Оксана Базилевич, Ольга Сутулова, Роман Агеев, Михаил Грубов, Филипп Горенштейн, Ян Гахарманов, Юлия Марченко, Марина Калецкая, Мария Смольникова, Алла Еминцева, Ольга Виниченко, Марина Даминева, Ольга Павлюкова-Описание:Безобидной лжи не бывает. Даже самая потаенная мысль рано или поздно пересекает границы души и оказывается в реальности настоящего времени. Представьте, что такая реальность материальна, она действительно существует, и ваши самые безжалостные фантазии находят в ней воплощение. Эта история о человеке, для которого власть, вседозволенность, безнаказанность слились воедино… «Sпарта» — это игра без правил, в которой виртуальное становится реальным.- -Качество: SATRip-AVC
Формат: MKV
Видео кодек: H.264
Аудио кодек: AC3
Видео MPEG4 Video (H264), 720x400, 25fps,1600 Kbps,bit/pixel 0.222
Аудио: AC3 48000Hz, stereo, 192 kbps,2 ch-
Код:
Общее
Уникальный идентификатор                 : 241733746993063792254834999894020437806 (0xB5DC39E79B4D1E9594B2F76EA1CBB72E)
Полное имя                               : E:\Sпарта\01 серия_Sпарта_rip by_Aleksan55.mkv
Формат                                   : Matroska
Версия формата                           : Version 2
Размер файла                             : 683 Мбайт
Продолжительность                        : 53 м. 14 с.
Общий поток                              : 1794 Кбит/сек
Дата кодирования                         : UTC 2018-07-09 16:59:20
Программа кодирования                    : mkvmerge v7.8.0 ('River Man') 32bit built on Apr  3 2015 12:11:22
Библиотека кодирования                   : libebml v1.3.1 + libmatroska v1.4.2
Видео
Идентификатор                            : 1
Формат                                   : AVC
Формат/Информация                        : Advanced Video Codec
Профиль формата                          : High@L4.1
Параметр CABAC формата                   : Да
Параметр ReFrames формата                : 14 кадров
Идентификатор кодека                     : V_MPEG4/ISO/AVC
Продолжительность                        : 53 м. 14 с.
Битрейт                                  : 1600 Кбит/сек
Ширина                                   : 720 пикселей
Высота                                   : 400 пикселей
Соотношение сторон                       : 16:9
Режим частоты кадров                     : Постоянный
Частота кадров                           : 25,000 кадров/сек
Цветовое пространство                    : YUV
Субдискретизация насыщенности            : 4:2:0
Битовая глубина                          : 8 бит
Тип развёртки                            : Прогрессивная
Бит/(Пиксели*Кадры)                      : 0.222
Размер потока                            : 596 Мбайт (87%)
Библиотека кодирования                   : x264 core 148 r2744kMod b97ae06
Настройки программы                      : cabac=1 / ref=14 / deblock=1:-2:-2 / analyse=0x3:0x133 / me=umh / subme=9 / psy=1 / fade_compensate=0.00 / psy_rd=1.00:0.00 / mixed_ref=0 / me_range=32 / chroma_me=1 / trellis=2 / 8x8dct=1 / cqm=0 / deadzone=21,11 / fast_pskip=1 / chroma_qp_offset=-2 / threads=12 / lookahead_threads=1 / sliced_threads=0 / nr=0 / decimate=0 / interlaced=0 / bluray_compat=0 / constrained_intra=0 / bframes=14 / b_pyramid=2 / b_adapt=1 / b_bias=0 / direct=3 / weightb=1 / open_gop=0 / weightp=2 / keyint=250 / keyint_min=25 / scenecut=40 / intra_refresh=0 / rc_lookahead=40 / rc=2pass / mbtree=1 / bitrate=1600 / ratetol=1.0 / qcomp=0.60 / qpmin=0 / qpmax=39 / qpstep=4 / cplxblur=20.0 / qblur=0.5 / ip_ratio=1.40 / aq=1:1.20
Default                                  : Да
Forced                                   : Нет
Цветовой диапазон                        : Limited
Основные цвета                           : BT.601 PAL
Характеристики трансфера                 : BT.470 System B, BT.470 System G
Коэффициенты матрицы                     : BT.601
Аудио
Идентификатор                            : 2
Формат                                   : AC-3
Формат/Информация                        : Audio Coding 3
Расширение режима                        : CM (complete main)
Параметр Endianness формата              : Big
Идентификатор кодека                     : A_AC3
Продолжительность                        : 53 м. 14 с.
Вид битрейта                             : Постоянный
Битрейт                                  : 192 Кбит/сек
Каналы                                   : 2 канала
Расположение каналов                     : Front: L R
Частота                                  : 48,0 КГц
Частота кадров                           : 31,250 кадров/сек (1536 spf)
Битовая глубина                          : 16 бит
Метод сжатия                             : С потерями
Размер потока                            : 73,1 Мбайт (11%)
Default                                  : Да
Forced                                   : Нет
- Добавлена 8 серия.
Download / Скачать

Хотите скачать бесплатно? Зарегистрируйтесь на сайте (ссылка на регистрацию). Pirat.ca - самый быстрый торрент трекер в рунете!

Как скачивать  ·   Что такое торрент  ·   Рейтинг и ограничения



Последний раз редактировалось: aleksan555 (Вчера 19:53), всего редактировалось 3 раз(а)

v230v

Корсар

Пост 17-Июл-2018 17:39 (спустя 7 дней)

[Q] 

Скачал!!!
[Профиль]  [ЛС] 

v230v

Корсар

Пост Сегодня 11:41 (спустя 2 дня 18 часов)

[Q] 

спасибо!!!
[Профиль]  [ЛС] 
Показать сообщения:    
Ответить на тему

Текущее время: Сегодня 18:52

Часовой пояс: GMT + 4



Вы не можете начинать темы
Вы не можете отвечать на сообщения
Вы не можете редактировать свои сообщения
Вы не можете удалять свои сообщения
Вы не можете голосовать в опросах
Вы не можете прикреплять файлы к сообщениям
Вы не можете скачивать файлы

Майнать ▼