Сердцеед / Le retour du heros (Лоран Тирар / Laurent Tirard) [2018 г., история, комедия, HDRip-AVC] Dub + Original (Fre)

Ответить на тему
 
Автор
Сообщение

Пост 09-Июл-2018 19:23

[Q] 

moscowpan

Гроза морей

-Сердцеед / Le retour du heros-«Герой. Самозванец. Авантюрист»- Производство: Франция, Бельгия
Год выпуска: 2018 г.
Жанр: история, комедия
Продолжительность: 01:30:22
Мировая премьера: 14 февраля 2018
Российская премьера: 14 февраля 2018
Перевод: Профессиональный (полное дублирование) [iTunes]
Оригинальный аудиопоток: французский
Режиссёр: Лоран Тирар / Laurent Tirard-В ролях: Жан Дюжарден, Мелани Лоран, Ноэми Мерлан, Кристоф Монтенез, Эвелин Бюиль, Кристиан Бюжо, Федор Аткин, Фабьен Галула, Лоран Бато, Жан-Мишель Лами и др.-Описание: Красавец и ловелас капитан Невиль, отправляясь в Австрию с армией Наполеона, клянется своей возлюбленной ежедневно писать. Но писем нет, и сердце трепетной Полин разбито. Ее сестра Элизабет решает писать от имени Невиля. Но, сочиняя невероятные подвиги и в конце концов похоронив с почестями легендарного героя, она и не предполагает, что однажды вполне живой и далеко не идеальный Невиль вновь появится у них на пороге.-
Качество видео: HDRip-AVC
Контейнер: MKV
Видео кодек: MPEG4 AVC
Аудио кодек: AC3
Видео: MPEG-4 AVC, 1024x426, 2340 kbps, 23,976 fps
Аудио: русский, AC3, 2.0, 48 kHz, 192 kbps | iTunes
Аудио #2: русский, AC3, 6 ch, 48 kHz, 384 kbps | iTune
Аудио #3: французский, AC3, 6 ch, 48 kHz, 640 kbps | оригинал
Cубтитры: отсутствуют
General
Unique ID : 199967677028649758486194943856344882766 (0x96705FAB73C4821BADEC37204B2CDE4E)
Complete name : F:TorrentLeRetourDuHeros2018HDRip.mkv
Format : Matroska
Format version : Version 4 / Version 2
File size : 2.25 GiB
Duration : 1 h 30 min
Overall bit rate : 3 557 kb/s
Encoded date : UTC 2018-06-19 17:11:05
Writing application : mkvmerge v9.5.0 ('Quiet Fire') 64bit
Writing library : libebml v1.3.4 + libmatroska v1.4.5
Video
ID : 1
Format : AVC
Format/Info : Advanced Video Codec
Format profile : [email protected]
Format settings : CABAC / 10 Ref Frames
Format settings, CABAC : Yes
Format settings, RefFrames : 10 frames
Codec ID : V_MPEG4/ISO/AVC
Duration : 1 h 30 min
Bit rate : 2 340 kb/s
Width : 1 024 pixels
Height : 426 pixels
Display aspect ratio : 2.40:1
Frame rate mode : Constant
Frame rate : 23.976 (24000/1001) FPS
Color space : YUV
Chroma subsampling : 4:2:0
Bit depth : 8 bits
Scan type : Progressive
Bits/(Pixel*Frame) : 0.224
Stream size : 1.48 GiB (66%)
Writing library : x264 core 155 r2901M 7d0ff22
Encoding settings : cabac=1 / ref=10 / deblock=1:-3:-3 / analyse=0x3:0x133 / me=umh / subme=11 / psy=1 / psy_rd=1.00:0.00 / mixed_ref=1 / me_range=32 / chroma_me=1 / trellis=2 / 8x8dct=1 / cqm=0 / deadzone=21,11 / fast_pskip=0 / chroma_qp_offset=-2 / threads=9 / lookahead_threads=2 / sliced_threads=0 / nr=0 / decimate=0 / interlaced=0 / bluray_compat=0 / constrained_intra=0 / bframes=10 / b_pyramid=2 / b_adapt=2 / b_bias=0 / direct=3 / weightb=1 / open_gop=0 / weightp=2 / keyint=240 / keyint_min=24 / scenecut=40 / intra_refresh=0 / rc_lookahead=120 / rc=2pass / mbtree=0 / bitrate=2340 / ratetol=1.0 / qcomp=0.70 / qpmin=0 / qpmax=69 / qpstep=4 / cplxblur=20.0 / qblur=0.5 / vbv_maxrate=50000 / vbv_bufsize=62500 / nal_hrd=none / filler=0 / ip_ratio=1.40 / pb_ratio=1.30 / aq=1:1.00
Language : English
Default : Yes
Forced : No
Audio #1
ID : 2
Format : AC-3
Format/Info : Audio Coding 3
Codec ID : A_AC3
Duration : 1 h 30 min
Bit rate mode : Constant
Bit rate : 192 kb/s
Channel(s) : 2 channels
Channel positions : Front: L R
Sampling rate : 48.0 kHz
Frame rate : 31.250 FPS (1536 SPF)
Bit depth : 16 bits
Compression mode : Lossy
Stream size : 124 MiB (5%)
Language : Russian
Default : Yes
Forced : No
Audio #2
ID : 3
Format : AC-3
Format/Info : Audio Coding 3
Codec ID : A_AC3
Duration : 1 h 30 min
Bit rate mode : Constant
Bit rate : 384 kb/s
Channel(s) : 6 channels
Channel positions : Front: L C R, Side: L R, LFE
Sampling rate : 48.0 kHz
Frame rate : 31.250 FPS (1536 SPF)
Bit depth : 16 bits
Compression mode : Lossy
Stream size : 248 MiB (11%)
Language : Russian
Default : No
Forced : No
Audio #3
ID : 4
Format : AC-3
Format/Info : Audio Coding 3
Codec ID : A_AC3
Duration : 1 h 30 min
Bit rate mode : Constant
Bit rate : 640 kb/s
Channel(s) : 6 channels
Channel positions : Front: L C R, Side: L R, LFE
Sampling rate : 48.0 kHz
Frame rate : 31.250 FPS (1536 SPF)
Bit depth : 16 bits
Compression mode : Lossy
Stream size : 414 MiB (18%)
Language : French
Default : No
Forced : No
Menu
00:00:00.000 : :00:00:00.000
00:07:07.052 : :00:07:07.052
00:13:16.754 : :00:13:16.754
00:20:11.919 : :00:20:11.919
00:30:44.801 : :00:30:44.801
00:38:53.248 : :00:38:53.248
00:45:35.942 : :00:45:35.942
00:51:48.439 : :00:51:48.439
00:58:30.549 : :00:58:30.549
01:07:29.796 : :01:07:29.796
01:17:00.574 : :01:17:00.574
01:26:04.034 : :01:26:04.034
Download / Скачать

Хотите скачать бесплатно? Зарегистрируйтесь на сайте (ссылка на регистрацию). Pirat.ca - самый быстрый торрент трекер в рунете!

Как скачивать  ·   Что такое торрент  ·   Рейтинг и ограничения

IgorWOO

Корсар

Пост 11-Июл-2018 06:04 (спустя 1 день 10 часов)

[Q] 

Точно! Доедает чье-то сердце на четвертом скриншете Спасибо!!!
[Профиль]  [ЛС] 

Ambeg

Корсар

Пост 14-Июл-2018 10:29 (спустя 3 дня)

[Q] 

есть моменты посмеяться )
[Профиль]  [ЛС] 

exelero07

Гроза морей

Пост 18-Июл-2018 23:32 (спустя 4 дня)

[Q] 

отличный французский фильм!
[Профиль]  [ЛС] 

Полтос

Гроза морей

Пост 26-Июл-2018 21:08 (спустя 7 дней)

[Q] 

Фильм получился вполне забавный, хотя "самый обыкновенный" герой не всякому придётся по вкусу, особенно нашим казакам!) Необычно, за это - лайк.

_________________
Первый закон Прапорщика: Всё что поднимаемо - относительно!)
[Профиль]  [ЛС] 

SwordFish

Корсар

1643

Пост 19-Сен-2018 22:50 (спустя 1 месяц 24 дня)

[Q] 

Французы таки умеют снимать комедии. Мне понравилась
[Профиль]  [ЛС] 

OleksBy

Корсар

Пост 21-Сен-2018 10:07 (спустя 1 день 11 часов)

[Q] 

Спасибо!!! мои любят все французское
[Профиль]  [ЛС] 

djos

Корсар

Пост 09-Ноя-2018 02:04 (спустя 1 месяц 17 дней)

[Q] 

ля какой класный фильм пра миня
[Профиль]  [ЛС] 

Су-34

Легенда

15810

Пост 10-Ноя-2018 11:44 (спустя 1 день 9 часов)

[Q] 

На любителя !COOL! так се!
[Профиль]  [ЛС] 

E-RTY

Флибустьер

30

Пост 18-Ноя-2018 20:06 (спустя 8 дней)

[Q] 

гляну, тогда отпишусь
[Профиль]  [ЛС] 
Показать сообщения:    
Ответить на тему

Текущее время: Сегодня 12:51

Часовой пояс: GMT + 4



Вы не можете начинать темы
Вы не можете отвечать на сообщения
Вы не можете редактировать свои сообщения
Вы не можете удалять свои сообщения
Вы не можете голосовать в опросах
Вы не можете прикреплять файлы к сообщениям
Вы не можете скачивать файлы

Майнать ▼