Новобранец / Rookie / Сезон: 1 / Серии: 1-15 из 20 (Майкл Гои / Michael Goi, Грег Биман / Greg Beeman, Тимоти Басфилд / Timothy Busfield) [2018 г., криминал, драма, WEBRip, 720p] MVO (BaibaKo)

Ответить на тему
 
Автор
Сообщение

Пост 18-Фев-2019 14:17

[Q] 

Vladimir14

Гроза морей

-Новобранец / Rookie-- Производство: США, The Mark Gordon Company
Жанр: криминал, драма
Год выпуска: 2018 г.
Продолжительность: 00:43:00
Мировая премьера: 16 октября 2018
Перевод: Профессиональный многоголосный [BaibaKo]
Режиссёр: Майкл Гои / Michael Goi, Грег Биман / Greg Beeman, Тимоти Басфилд / Timothy Busfield-В ролях: Марсей Монро, Ричард Т. Джонс, Мелисса О Нил, Алисса Диас, Нэйтан Филлион, Мерседес Масон, Дэвид ДеСантос, Эфтон Уильямсон, Титус Макин мл., Эрик Винтер-Описание: Сериал основанный на реальных событиях, после развода с женой, житель провинциального городка, сорокалетний Джон Нолан, решает воплотить в жизнь заветную мечту, служить в полиции Лос-Анджелеса. Как для новобранца он слишком стар, но Джон не унывает, он готов на все, понимая сложность и опасность работы служителя закона в городе ангелов. По началу в команде профессионалов его не воспринимают всерьез, Джон используя жизненный опыт и отличное чувство юмора, готов доказать свою компетентность и состоятельность...-
Качество видео: WEBRip
Контейнер: MKV
Стандарт разрешения: 720p
Видео кодек: MPEG4 AVC
Аудио кодек: AC3
Видео: 1280x720, 3925 Кбит/сек, 23,976 fps
Аудио #1: Russian, 640 Кбит/с, 6 ch, 48,0 КГц
Аудио #2: English, 640 Кбит/с, 6 ch, 48,0 КГц
Cубтитры: отсутствуют
«Новичок» (так же известен как «Новобранец») — американский сериал о тяжелых буднях сотрудников обычного полицейского участка где-то в дебрях Лос Анджелеса. Премьера сопровождалась агрессивной рекламной кампанией, упор в которой делался на то, что это «история 40-летнего мужчины, решившего радикально изменить жизнь и поступить на службу в полицию». Пусть возраст вас не смущает. В некоторых американских штатах действительно нет возрастных ограничений для желающих стать полицейскими. На данный момент самому возрастному новобранцу в рядах американских полицейских 56 лет.
Однако, после просмотра пары серий становится очевидно: это обычный «процедурный» сериал. Возраст главного героя очень быстро перестает играть хоть какую-то роль в происходящем. Нам предлагают очень стандартную драму о работе полиции. В этом есть свои плюсы. «Новобранца» можно рассматривать как антипод гламурных сказок вроде «Гавайи 5-0» или «Смертельное оружие». В «Новобранце» мы видим унылую серую реальность: тонны отчетов, несовершенство бюрократической машины, грязь улиц и несправедливость бытия. Слоганом фильма может стать фраза одного из персонажей: «Мы не можем да и не должны спасти всех, поэтому просто следуем инструкции».
Общее
Уникальный идентификатор : 4813195190927744203559589820891688497 (0x39EFCD83EC0E6005FFB099DDA786E31)
Полное имя : The.Rookie.s01e01.HD720p.mkv
Формат : Matroska
Версия формата : Version 4 / Version 2
Размер файла : 1,59 Гбайт
Продолжительность : 42 м. 55 с.
Общий поток : 5311 Кбит/сек
Программа кодирования : Lavf57.71.100
Библиотека кодирования : Lavf57.71.100
ErrorDetectionType : Per level 1
Видео
Идентификатор : 1
Формат : AVC
Формат/Информация : Advanced Video Codec
Профиль формата : [email protected]
Настройки формата : CABAC / 4 Ref Frames
Параметр CABAC формата : Да
Параметр RefFrames формата : 4 кадра
Идентификатор кодека : V_MPEG4/ISO/AVC
Продолжительность : 42 м. 55 с.
Битрейт : 3925 Кбит/сек
Ширина : 1280 пикселей
Высота : 720 пикселей
Соотношение сторон : 16:9
Режим частоты кадров : Постоянный
Частота кадров : 23,976 (24000/1001) кадра/сек
Цветовое пространство : YUV
Субдискретизация насыщенности : 4:2:0
Битовая глубина : 8 бит
Тип развёртки : Прогрессивная
Бит/(Пиксели*Кадры) : 0.178
Размер потока : 1,18 Гбайт (74%)
Default : Да
Forced : Нет
Аудио #1
Идентификатор : 2
Формат : AC-3
Формат/Информация : Audio Coding 3
Идентификатор кодека : A_AC3
Продолжительность : 42 м. 55 с.
Вид битрейта : Постоянный
Битрейт : 640 Кбит/сек
Каналы : 6 каналов
Расположение каналов : Front: L C R, Side: L R, LFE
Частота : 48,0 КГц
Частота кадров : 31,250 кадров/сек (1536 SPF)
Битовая глубина : 16 бит
Метод сжатия : С потерями
Задержка видео : 30 мс.
Размер потока : 196 Мбайт (12%)
Язык : Russian
ServiceKind/String : Complete Main
Default : Да
Forced : Нет
Аудио #2
Идентификатор : 3
Формат : AC-3
Формат/Информация : Audio Coding 3
Идентификатор кодека : A_AC3
Продолжительность : 42 м. 55 с.
Вид битрейта : Постоянный
Битрейт : 640 Кбит/сек
Каналы : 6 каналов
Расположение каналов : Front: L C R, Side: L R, LFE
Частота : 48,0 КГц
Частота кадров : 31,250 кадров/сек (1536 SPF)
Битовая глубина : 16 бит
Метод сжатия : С потерями
Задержка видео : 30 мс.
Размер потока : 196 Мбайт (12%)
ServiceKind/String : Complete Main
Default : Да
Forced : Нет
Общее
Уникальный идентификатор : 311962358874434648288781044049935374117 (0xEAB1C3CD10AA4D2F2F8C82C935D49725)
Полное имя : The.Rookie.s01e02.HD720p.mkv
Формат : Matroska
Версия формата : Version 4 / Version 2
Размер файла : 1,60 Гбайт
Продолжительность : 42 м. 53 с.
Общий поток : 5328 Кбит/сек
Программа кодирования : Lavf57.71.100
Библиотека кодирования : Lavf57.71.100
ErrorDetectionType : Per level 1
Видео
Идентификатор : 1
Формат : AVC
Формат/Информация : Advanced Video Codec
Профиль формата : [email protected]
Настройки формата : CABAC / 4 Ref Frames
Параметр CABAC формата : Да
Параметр RefFrames формата : 4 кадра
Идентификатор кодека : V_MPEG4/ISO/AVC
Продолжительность : 42 м. 53 с.
Битрейт : 3942 Кбит/сек
Ширина : 1280 пикселей
Высота : 720 пикселей
Соотношение сторон : 16:9
Режим частоты кадров : Постоянный
Частота кадров : 23,976 (24000/1001) кадра/сек
Цветовое пространство : YUV
Субдискретизация насыщенности : 4:2:0
Битовая глубина : 8 бит
Тип развёртки : Прогрессивная
Бит/(Пиксели*Кадры) : 0.178
Размер потока : 1,18 Гбайт (74%)
Default : Да
Forced : Нет
Аудио #1
Идентификатор : 2
Формат : AC-3
Формат/Информация : Audio Coding 3
Идентификатор кодека : A_AC3
Продолжительность : 42 м. 53 с.
Вид битрейта : Постоянный
Битрейт : 640 Кбит/сек
Каналы : 6 каналов
Расположение каналов : Front: L C R, Side: L R, LFE
Частота : 48,0 КГц
Частота кадров : 31,250 кадров/сек (1536 SPF)
Битовая глубина : 16 бит
Метод сжатия : С потерями
Задержка видео : 30 мс.
Размер потока : 196 Мбайт (12%)
Язык : Russian
ServiceKind/String : Complete Main
Default : Да
Forced : Нет
Аудио #2
Идентификатор : 3
Формат : AC-3
Формат/Информация : Audio Coding 3
Идентификатор кодека : A_AC3
Продолжительность : 42 м. 53 с.
Вид битрейта : Постоянный
Битрейт : 640 Кбит/сек
Каналы : 6 каналов
Расположение каналов : Front: L C R, Side: L R, LFE
Частота : 48,0 КГц
Частота кадров : 31,250 кадров/сек (1536 SPF)
Битовая глубина : 16 бит
Метод сжатия : С потерями
Задержка видео : 30 мс.
Размер потока : 196 Мбайт (12%)
ServiceKind/String : Complete Main
Default : Да
Forced : Нет
Общее
Уникальный идентификатор : 59983648783766662791564461396514346229 (0x2D206E37A5F9C8179D0F1FC7826494F5)
Полное имя : The.Rookie.s01e03.HD720p.mkv
Формат : Matroska
Версия формата : Version 4 / Version 2
Размер файла : 1,58 Гбайт
Продолжительность : 42 м. 41 с.
Общий поток : 5303 Кбит/сек
Программа кодирования : Lavf57.71.100
Библиотека кодирования : Lavf57.71.100
ErrorDetectionType : Per level 1
Видео
Идентификатор : 1
Формат : AVC
Формат/Информация : Advanced Video Codec
Профиль формата : [email protected]
Настройки формата : CABAC / 4 Ref Frames
Параметр CABAC формата : Да
Параметр RefFrames формата : 4 кадра
Идентификатор кодека : V_MPEG4/ISO/AVC
Продолжительность : 42 м. 41 с.
Битрейт : 3917 Кбит/сек
Ширина : 1280 пикселей
Высота : 720 пикселей
Соотношение сторон : 16:9
Режим частоты кадров : Постоянный
Частота кадров : 23,976 (24000/1001) кадра/сек
Цветовое пространство : YUV
Субдискретизация насыщенности : 4:2:0
Битовая глубина : 8 бит
Тип развёртки : Прогрессивная
Бит/(Пиксели*Кадры) : 0.177
Размер потока : 1,17 Гбайт (74%)
Default : Да
Forced : Нет
Аудио #1
Идентификатор : 2
Формат : AC-3
Формат/Информация : Audio Coding 3
Идентификатор кодека : A_AC3
Продолжительность : 42 м. 41 с.
Вид битрейта : Постоянный
Битрейт : 640 Кбит/сек
Каналы : 6 каналов
Расположение каналов : Front: L C R, Side: L R, LFE
Частота : 48,0 КГц
Частота кадров : 31,250 кадров/сек (1536 SPF)
Битовая глубина : 16 бит
Метод сжатия : С потерями
Задержка видео : 30 мс.
Размер потока : 195 Мбайт (12%)
Язык : Russian
ServiceKind/String : Complete Main
Default : Да
Forced : Нет
Аудио #2
Идентификатор : 3
Формат : AC-3
Формат/Информация : Audio Coding 3
Идентификатор кодека : A_AC3
Продолжительность : 42 м. 41 с.
Вид битрейта : Постоянный
Битрейт : 640 Кбит/сек
Каналы : 6 каналов
Расположение каналов : Front: L C R, Side: L R, LFE
Частота : 48,0 КГц
Частота кадров : 31,250 кадров/сек (1536 SPF)
Битовая глубина : 16 бит
Метод сжатия : С потерями
Задержка видео : 30 мс.
Размер потока : 195 Мбайт (12%)
ServiceKind/String : Complete Main
Default : Да
Forced : Нет
Общее
Уникальный идентификатор : 255602263161017856358029611025310085944 (0xC04B348B198EEE250F05F41FEAE2F338)
Полное имя : The.Rookie.s01e04.HD720p.mkv
Формат : Matroska
Версия формата : Version 4 / Version 2
Размер файла : 1,42 Гбайт
Продолжительность : 42 м. 56 с.
Общий поток : 4723 Кбит/сек
Программа кодирования : Lavf57.71.100
Библиотека кодирования : Lavf57.71.100
ErrorDetectionType : Per level 1
Видео
Идентификатор : 1
Формат : AVC
Формат/Информация : Advanced Video Codec
Профиль формата : [email protected]
Настройки формата : CABAC / 4 Ref Frames
Параметр CABAC формата : Да
Параметр RefFrames формата : 4 кадра
Идентификатор кодека : V_MPEG4/ISO/AVC
Продолжительность : 42 м. 56 с.
Битрейт : 3349 Кбит/сек
Ширина : 1280 пикселей
Высота : 720 пикселей
Соотношение сторон : 16:9
Режим частоты кадров : Постоянный
Частота кадров : 23,976 (24000/1001) кадра/сек
Цветовое пространство : YUV
Субдискретизация насыщенности : 4:2:0
Битовая глубина : 8 бит
Тип развёртки : Прогрессивная
Бит/(Пиксели*Кадры) : 0.152
Размер потока : 1,00 Гбайт (71%)
Default : Да
Forced : Нет
Аудио #1
Идентификатор : 2
Формат : AC-3
Формат/Информация : Audio Coding 3
Идентификатор кодека : A_AC3
Продолжительность : 42 м. 56 с.
Вид битрейта : Постоянный
Битрейт : 640 Кбит/сек
Каналы : 6 каналов
Расположение каналов : Front: L C R, Side: L R, LFE
Частота : 48,0 КГц
Частота кадров : 31,250 кадров/сек (1536 SPF)
Битовая глубина : 16 бит
Метод сжатия : С потерями
Задержка видео : 30 мс.
Размер потока : 197 Мбайт (14%)
Язык : Russian
ServiceKind/String : Complete Main
Default : Да
Forced : Нет
Аудио #2
Идентификатор : 3
Формат : AC-3
Формат/Информация : Audio Coding 3
Идентификатор кодека : A_AC3
Продолжительность : 42 м. 56 с.
Вид битрейта : Постоянный
Битрейт : 640 Кбит/сек
Каналы : 6 каналов
Расположение каналов : Front: L C R, Side: L R, LFE
Частота : 48,0 КГц
Частота кадров : 31,250 кадров/сек (1536 SPF)
Битовая глубина : 16 бит
Метод сжатия : С потерями
Задержка видео : 30 мс.
Размер потока : 197 Мбайт (14%)
ServiceKind/String : Complete Main
Default : Да
Forced : Нет
Общее
Уникальный идентификатор : 125330164450275821144932291301210408664 (0x5E49B62FAD06D8C3FEDD38B99E3546D8)
Полное имя : The.Rookie.s01e05.HD720p.mkv
Формат : Matroska
Версия формата : Version 4 / Version 2
Размер файла : 1,36 Гбайт
Продолжительность : 41 м. 12 с.
Общий поток : 4724 Кбит/сек
Программа кодирования : Lavf57.71.100
Библиотека кодирования : Lavf57.71.100
ErrorDetectionType : Per level 1
Видео
Идентификатор : 1
Формат : AVC
Формат/Информация : Advanced Video Codec
Профиль формата : [email protected]
Настройки формата : CABAC / 4 Ref Frames
Параметр CABAC формата : Да
Параметр RefFrames формата : 4 кадра
Идентификатор кодека : V_MPEG4/ISO/AVC
Продолжительность : 41 м. 12 с.
Битрейт : 3350 Кбит/сек
Ширина : 1280 пикселей
Высота : 720 пикселей
Соотношение сторон : 16:9
Режим частоты кадров : Постоянный
Частота кадров : 23,976 (24000/1001) кадра/сек
Цветовое пространство : YUV
Субдискретизация насыщенности : 4:2:0
Битовая глубина : 8 бит
Тип развёртки : Прогрессивная
Бит/(Пиксели*Кадры) : 0.152
Размер потока : 987 Мбайт (71%)
Default : Да
Forced : Нет
Аудио #1
Идентификатор : 2
Формат : AC-3
Формат/Информация : Audio Coding 3
Идентификатор кодека : A_AC3
Продолжительность : 41 м. 12 с.
Вид битрейта : Постоянный
Битрейт : 640 Кбит/сек
Каналы : 6 каналов
Расположение каналов : Front: L C R, Side: L R, LFE
Частота : 48,0 КГц
Частота кадров : 31,250 кадров/сек (1536 SPF)
Битовая глубина : 16 бит
Метод сжатия : С потерями
Задержка видео : 30 мс.
Размер потока : 189 Мбайт (14%)
Язык : Russian
ServiceKind/String : Complete Main
Default : Да
Forced : Нет
Аудио #2
Идентификатор : 3
Формат : AC-3
Формат/Информация : Audio Coding 3
Идентификатор кодека : A_AC3
Продолжительность : 41 м. 12 с.
Вид битрейта : Постоянный
Битрейт : 640 Кбит/сек
Каналы : 6 каналов
Расположение каналов : Front: L C R, Side: L R, LFE
Частота : 48,0 КГц
Частота кадров : 31,250 кадров/сек (1536 SPF)
Битовая глубина : 16 бит
Метод сжатия : С потерями
Задержка видео : 30 мс.
Размер потока : 189 Мбайт (14%)
ServiceKind/String : Complete Main
Default : Да
Forced : Нет
Общее
Уникальный идентификатор : 263038912027768727897624736785394003318 (0xC5E373A4025BB1FC501FF9F4114B6D76)
Полное имя : The.Rookie.s01e06.HD720p.mkv
Формат : Matroska
Версия формата : Version 4 / Version 2
Размер файла : 1,59 Гбайт
Продолжительность : 42 м. 57 с.
Общий поток : 5311 Кбит/сек
Программа кодирования : Lavf57.71.100
Библиотека кодирования : Lavf57.71.100
ErrorDetectionType : Per level 1
Видео
Идентификатор : 1
Формат : AVC
Формат/Информация : Advanced Video Codec
Профиль формата : [email protected]
Настройки формата : CABAC / 4 Ref Frames
Параметр CABAC формата : Да
Параметр RefFrames формата : 4 кадра
Идентификатор кодека : V_MPEG4/ISO/AVC
Продолжительность : 42 м. 57 с.
Битрейт : 3925 Кбит/сек
Ширина : 1280 пикселей
Высота : 720 пикселей
Соотношение сторон : 16:9
Режим частоты кадров : Постоянный
Частота кадров : 23,976 (24000/1001) кадра/сек
Цветовое пространство : YUV
Субдискретизация насыщенности : 4:2:0
Битовая глубина : 8 бит
Тип развёртки : Прогрессивная
Бит/(Пиксели*Кадры) : 0.178
Размер потока : 1,18 Гбайт (74%)
Default : Да
Forced : Нет
Аудио #1
Идентификатор : 2
Формат : AC-3
Формат/Информация : Audio Coding 3
Идентификатор кодека : A_AC3
Продолжительность : 42 м. 57 с.
Вид битрейта : Постоянный
Битрейт : 640 Кбит/сек
Каналы : 6 каналов
Расположение каналов : Front: L C R, Side: L R, LFE
Частота : 48,0 КГц
Частота кадров : 31,250 кадров/сек (1536 SPF)
Битовая глубина : 16 бит
Метод сжатия : С потерями
Задержка видео : 30 мс.
Размер потока : 197 Мбайт (12%)
Язык : Russian
ServiceKind/String : Complete Main
Default : Да
Forced : Нет
Аудио #2
Идентификатор : 3
Формат : AC-3
Формат/Информация : Audio Coding 3
Идентификатор кодека : A_AC3
Продолжительность : 42 м. 57 с.
Вид битрейта : Постоянный
Битрейт : 640 Кбит/сек
Каналы : 6 каналов
Расположение каналов : Front: L C R, Side: L R, LFE
Частота : 48,0 КГц
Частота кадров : 31,250 кадров/сек (1536 SPF)
Битовая глубина : 16 бит
Метод сжатия : С потерями
Задержка видео : 30 мс.
Размер потока : 197 Мбайт (12%)
ServiceKind/String : Complete Main
Default : Да
Forced : Нет
Общее
Уникальный идентификатор : 328573554226774552826885936218811035244 (0xF730F6F6B44CD482323FE7A8478A6E6C)
Полное имя : The.Rookie.s01e07.HD720p.mkv
Формат : Matroska
Версия формата : Version 4 / Version 2
Размер файла : 1,39 Гбайт
Продолжительность : 42 м. 17 с.
Общий поток : 4713 Кбит/сек
Программа кодирования : Lavf57.71.100
Библиотека кодирования : Lavf57.71.100
ErrorDetectionType : Per level 1
Видео
Идентификатор : 1
Формат : AVC
Формат/Информация : Advanced Video Codec
Профиль формата : [email protected]
Настройки формата : CABAC / 4 Ref Frames
Параметр CABAC формата : Да
Параметр RefFrames формата : 4 кадра
Идентификатор кодека : V_MPEG4/ISO/AVC
Продолжительность : 42 м. 17 с.
Битрейт : 3340 Кбит/сек
Ширина : 1280 пикселей
Высота : 720 пикселей
Соотношение сторон : 16:9
Режим частоты кадров : Постоянный
Частота кадров : 23,976 (24000/1001) кадра/сек
Цветовое пространство : YUV
Субдискретизация насыщенности : 4:2:0
Битовая глубина : 8 бит
Тип развёртки : Прогрессивная
Бит/(Пиксели*Кадры) : 0.151
Размер потока : 1010 Мбайт (71%)
Default : Да
Forced : Нет
Аудио #1
Идентификатор : 2
Формат : AC-3
Формат/Информация : Audio Coding 3
Идентификатор кодека : A_AC3
Продолжительность : 42 м. 17 с.
Вид битрейта : Постоянный
Битрейт : 640 Кбит/сек
Каналы : 6 каналов
Расположение каналов : Front: L C R, Side: L R, LFE
Частота : 48,0 КГц
Частота кадров : 31,250 кадров/сек (1536 SPF)
Битовая глубина : 16 бит
Метод сжатия : С потерями
Задержка видео : 30 мс.
Размер потока : 194 Мбайт (14%)
Язык : Russian
ServiceKind/String : Complete Main
Default : Да
Forced : Нет
Аудио #2
Идентификатор : 3
Формат : AC-3
Формат/Информация : Audio Coding 3
Идентификатор кодека : A_AC3
Продолжительность : 42 м. 17 с.
Вид битрейта : Постоянный
Битрейт : 640 Кбит/сек
Каналы : 6 каналов
Расположение каналов : Front: L C R, Side: L R, LFE
Частота : 48,0 КГц
Частота кадров : 31,250 кадров/сек (1536 SPF)
Битовая глубина : 16 бит
Метод сжатия : С потерями
Задержка видео : 30 мс.
Размер потока : 194 Мбайт (14%)
ServiceKind/String : Complete Main
Default : Да
Forced : Нет
Общее
Уникальный идентификатор : 178220989982156532824046377572515448748 (0x86141D37C98F3FE61158B7BEC9B407AC)
Полное имя : The.Rookie.s01e08.HD720p.mkv
Формат : Matroska
Версия формата : Version 4 / Version 2
Размер файла : 1,23 Гбайт
Продолжительность : 41 м. 42 с.
Общий поток : 4229 Кбит/сек
Программа кодирования : Lavf57.71.100
Библиотека кодирования : Lavf57.71.100
ErrorDetectionType : Per level 1
Видео
Идентификатор : 1
Формат : AVC
Формат/Информация : Advanced Video Codec
Профиль формата : [email protected]
Настройки формата : CABAC / 4 Ref Frames
Параметр CABAC формата : Да
Параметр RefFrames формата : 4 кадра
Идентификатор кодека : V_MPEG4/ISO/AVC
Продолжительность : 41 м. 42 с.
Битрейт : 2865 Кбит/сек
Ширина : 1280 пикселей
Высота : 720 пикселей
Соотношение сторон : 16:9
Режим частоты кадров : Постоянный
Частота кадров : 23,976 (24000/1001) кадра/сек
Цветовое пространство : YUV
Субдискретизация насыщенности : 4:2:0
Битовая глубина : 8 бит
Тип развёртки : Прогрессивная
Бит/(Пиксели*Кадры) : 0.130
Размер потока : 855 Мбайт (68%)
Default : Да
Forced : Нет
Аудио #1
Идентификатор : 2
Формат : AC-3
Формат/Информация : Audio Coding 3
Идентификатор кодека : A_AC3
Продолжительность : 41 м. 42 с.
Вид битрейта : Постоянный
Битрейт : 640 Кбит/сек
Каналы : 6 каналов
Расположение каналов : Front: L C R, Side: L R, LFE
Частота : 48,0 КГц
Частота кадров : 31,250 кадров/сек (1536 SPF)
Битовая глубина : 16 бит
Метод сжатия : С потерями
Задержка видео : 30 мс.
Размер потока : 191 Мбайт (15%)
Язык : Russian
ServiceKind/String : Complete Main
Default : Да
Forced : Нет
Аудио #2
Идентификатор : 3
Формат : AC-3
Формат/Информация : Audio Coding 3
Идентификатор кодека : A_AC3
Продолжительность : 41 м. 42 с.
Вид битрейта : Постоянный
Битрейт : 640 Кбит/сек
Каналы : 6 каналов
Расположение каналов : Front: L C R, Side: L R, LFE
Частота : 48,0 КГц
Частота кадров : 31,250 кадров/сек (1536 SPF)
Битовая глубина : 16 бит
Метод сжатия : С потерями
Задержка видео : 30 мс.
Размер потока : 191 Мбайт (15%)
ServiceKind/String : Complete Main
Default : Да
Forced : Нет
Общее
Уникальный идентификатор : 18840009807358788647157746428512100460 (0xE2C74330E5C177AA3402C228C48E06C)
Полное имя : The.Rookie.s01e09.HD720p.mkv
Формат : Matroska
Версия формата : Version 4 / Version 2
Размер файла : 1,26 Гбайт
Продолжительность : 42 м. 42 с.
Общий поток : 4213 Кбит/сек
Программа кодирования : Lavf57.71.100
Библиотека кодирования : Lavf57.71.100
ErrorDetectionType : Per level 1
Видео
Идентификатор : 1
Формат : AVC
Формат/Информация : Advanced Video Codec
Профиль формата : [email protected]
Настройки формата : CABAC / 4 Ref Frames
Параметр CABAC формата : Да
Параметр RefFrames формата : 4 кадра
Идентификатор кодека : V_MPEG4/ISO/AVC
Продолжительность : 42 м. 42 с.
Битрейт : 2849 Кбит/сек
Ширина : 1280 пикселей
Высота : 720 пикселей
Соотношение сторон : 16:9
Режим частоты кадров : Постоянный
Частота кадров : 23,976 (24000/1001) кадра/сек
Цветовое пространство : YUV
Субдискретизация насыщенности : 4:2:0
Битовая глубина : 8 бит
Тип развёртки : Прогрессивная
Бит/(Пиксели*Кадры) : 0.129
Размер потока : 870 Мбайт (68%)
Default : Да
Forced : Нет
Аудио #1
Идентификатор : 2
Формат : AC-3
Формат/Информация : Audio Coding 3
Идентификатор кодека : A_AC3
Продолжительность : 42 м. 42 с.
Вид битрейта : Постоянный
Битрейт : 640 Кбит/сек
Каналы : 6 каналов
Расположение каналов : Front: L C R, Side: L R, LFE
Частота : 48,0 КГц
Частота кадров : 31,250 кадров/сек (1536 SPF)
Битовая глубина : 16 бит
Метод сжатия : С потерями
Задержка видео : 30 мс.
Размер потока : 195 Мбайт (15%)
Язык : Russian
ServiceKind/String : Complete Main
Default : Да
Forced : Нет
Аудио #2
Идентификатор : 3
Формат : AC-3
Формат/Информация : Audio Coding 3
Идентификатор кодека : A_AC3
Продолжительность : 42 м. 42 с.
Вид битрейта : Постоянный
Битрейт : 640 Кбит/сек
Каналы : 6 каналов
Расположение каналов : Front: L C R, Side: L R, LFE
Частота : 48,0 КГц
Частота кадров : 31,250 кадров/сек (1536 SPF)
Битовая глубина : 16 бит
Метод сжатия : С потерями
Задержка видео : 30 мс.
Размер потока : 195 Мбайт (15%)
ServiceKind/String : Complete Main
Default : Да
Forced : Нет
Общее
Уникальный идентификатор : 283017762062630193602489364847044621352 (0xD4EB3CFF96F17B140B2BA487AF707428)
Полное имя : The.Rookie.s01e10.HD720p.mkv
Формат : Matroska
Версия формата : Version 4 / Version 2
Размер файла : 1,21 Гбайт
Продолжительность : 41 м. 30 с.
Общий поток : 4188 Кбит/сек
Программа кодирования : Lavf57.71.100
Библиотека кодирования : Lavf57.71.100
ErrorDetectionType : Per level 1
Видео
Идентификатор : 1
Формат : AVC
Формат/Информация : Advanced Video Codec
Профиль формата : [email protected]
Настройки формата : CABAC / 4 Ref Frames
Параметр CABAC формата : Да
Параметр RefFrames формата : 4 кадра
Идентификатор кодека : V_MPEG4/ISO/AVC
Продолжительность : 41 м. 30 с.
Битрейт : 2825 Кбит/сек
Ширина : 1280 пикселей
Высота : 720 пикселей
Соотношение сторон : 16:9
Режим частоты кадров : Постоянный
Частота кадров : 23,976 (24000/1001) кадра/сек
Цветовое пространство : YUV
Субдискретизация насыщенности : 4:2:0
Битовая глубина : 8 бит
Тип развёртки : Прогрессивная
Бит/(Пиксели*Кадры) : 0.128
Размер потока : 839 Мбайт (67%)
Default : Да
Forced : Нет
Аудио #1
Идентификатор : 2
Формат : AC-3
Формат/Информация : Audio Coding 3
Идентификатор кодека : A_AC3
Продолжительность : 41 м. 30 с.
Вид битрейта : Постоянный
Битрейт : 640 Кбит/сек
Каналы : 6 каналов
Расположение каналов : Front: L C R, Side: L R, LFE
Частота : 48,0 КГц
Частота кадров : 31,250 кадров/сек (1536 SPF)
Битовая глубина : 16 бит
Метод сжатия : С потерями
Задержка видео : 30 мс.
Размер потока : 190 Мбайт (15%)
Язык : Russian
ServiceKind/String : Complete Main
Default : Да
Forced : Нет
Аудио #2
Идентификатор : 3
Формат : AC-3
Формат/Информация : Audio Coding 3
Идентификатор кодека : A_AC3
Продолжительность : 41 м. 30 с.
Вид битрейта : Постоянный
Битрейт : 640 Кбит/сек
Каналы : 6 каналов
Расположение каналов : Front: L C R, Side: L R, LFE
Частота : 48,0 КГц
Частота кадров : 31,250 кадров/сек (1536 SPF)
Битовая глубина : 16 бит
Метод сжатия : С потерями
Задержка видео : 30 мс.
Размер потока : 190 Мбайт (15%)
ServiceKind/String : Complete Main
Default : Да
Forced : Нет
Общее
Уникальный идентификатор : 231619033238699202713385817379199995170 (0xAE403403A22F48B3B8B1C4A226274D22)
Полное имя : The.Rookie.s01e11.HD720p.mkv
Формат : Matroska
Версия формата : Version 4 / Version 2
Размер файла : 1,26 Гбайт
Продолжительность : 42 м. 37 с.
Общий поток : 4220 Кбит/сек
Программа кодирования : Lavf57.71.100
Библиотека кодирования : Lavf57.71.100
ErrorDetectionType : Per level 1
Видео
Идентификатор : 1
Формат : AVC
Формат/Информация : Advanced Video Codec
Профиль формата : [email protected]
Настройки формата : CABAC / 4 Ref Frames
Параметр CABAC формата : Да
Параметр RefFrames формата : 4 кадра
Идентификатор кодека : V_MPEG4/ISO/AVC
Продолжительность : 42 м. 37 с.
Битрейт : 2856 Кбит/сек
Ширина : 1280 пикселей
Высота : 720 пикселей
Соотношение сторон : 16:9
Режим частоты кадров : Постоянный
Частота кадров : 23,976 (24000/1001) кадра/сек
Цветовое пространство : YUV
Субдискретизация насыщенности : 4:2:0
Битовая глубина : 8 бит
Тип развёртки : Прогрессивная
Бит/(Пиксели*Кадры) : 0.129
Размер потока : 871 Мбайт (68%)
Default : Да
Forced : Нет
Аудио #1
Идентификатор : 2
Формат : AC-3
Формат/Информация : Audio Coding 3
Идентификатор кодека : A_AC3
Продолжительность : 42 м. 37 с.
Вид битрейта : Постоянный
Битрейт : 640 Кбит/сек
Каналы : 6 каналов
Расположение каналов : Front: L C R, Side: L R, LFE
Частота : 48,0 КГц
Частота кадров : 31,250 кадров/сек (1536 SPF)
Битовая глубина : 16 бит
Метод сжатия : С потерями
Задержка видео : 30 мс.
Размер потока : 195 Мбайт (15%)
Язык : Russian
ServiceKind/String : Complete Main
Default : Да
Forced : Нет
Аудио #2
Идентификатор : 3
Формат : AC-3
Формат/Информация : Audio Coding 3
Идентификатор кодека : A_AC3
Продолжительность : 42 м. 37 с.
Вид битрейта : Постоянный
Битрейт : 640 Кбит/сек
Каналы : 6 каналов
Расположение каналов : Front: L C R, Side: L R, LFE
Частота : 48,0 КГц
Частота кадров : 31,250 кадров/сек (1536 SPF)
Битовая глубина : 16 бит
Метод сжатия : С потерями
Задержка видео : 30 мс.
Размер потока : 195 Мбайт (15%)
ServiceKind/String : Complete Main
Default : Да
Forced : Нет
Общее
Уникальный идентификатор : 60935297853577579986653029851657621280 (0x2DD7B623984F7EBE601FBA3D13CF4F20)
Полное имя : The.Rookie.s01e12.HD720p.mkv
Формат : Matroska
Версия формата : Version 4 / Version 2
Размер файла : 1,60 Гбайт
Продолжительность : 42 м. 45 с.
Общий поток : 5350 Кбит/сек
Программа кодирования : Lavf57.71.100
Библиотека кодирования : Lavf57.71.100
ErrorDetectionType : Per level 1
Видео
Идентификатор : 1
Формат : AVC
Формат/Информация : Advanced Video Codec
Профиль формата : [email protected]
Настройки формата : CABAC / 4 Ref Frames
Параметр CABAC формата : Да
Параметр RefFrames формата : 4 кадра
Идентификатор кодека : V_MPEG4/ISO/AVC
Продолжительность : 42 м. 45 с.
Битрейт : 3963 Кбит/сек
Ширина : 1280 пикселей
Высота : 720 пикселей
Соотношение сторон : 16:9
Режим частоты кадров : Постоянный
Частота кадров : 23,976 (24000/1001) кадра/сек
Цветовое пространство : YUV
Субдискретизация насыщенности : 4:2:0
Битовая глубина : 8 бит
Тип развёртки : Прогрессивная
Бит/(Пиксели*Кадры) : 0.179
Размер потока : 1,18 Гбайт (74%)
Default : Да
Forced : Нет
Аудио #1
Идентификатор : 2
Формат : AC-3
Формат/Информация : Audio Coding 3
Идентификатор кодека : A_AC3
Продолжительность : 42 м. 45 с.
Вид битрейта : Постоянный
Битрейт : 640 Кбит/сек
Каналы : 6 каналов
Расположение каналов : Front: L C R, Side: L R, LFE
Частота : 48,0 КГц
Частота кадров : 31,250 кадров/сек (1536 SPF)
Битовая глубина : 16 бит
Метод сжатия : С потерями
Задержка видео : 30 мс.
Размер потока : 196 Мбайт (12%)
Язык : Russian
ServiceKind/String : Complete Main
Default : Да
Forced : Нет
Аудио #2
Идентификатор : 3
Формат : AC-3
Формат/Информация : Audio Coding 3
Идентификатор кодека : A_AC3
Продолжительность : 42 м. 45 с.
Вид битрейта : Постоянный
Битрейт : 640 Кбит/сек
Каналы : 6 каналов
Расположение каналов : Front: L C R, Side: L R, LFE
Частота : 48,0 КГц
Частота кадров : 31,250 кадров/сек (1536 SPF)
Битовая глубина : 16 бит
Метод сжатия : С потерями
Задержка видео : 30 мс.
Размер потока : 196 Мбайт (12%)
ServiceKind/String : Complete Main
Default : Да
Forced : Нет
Общее
Уникальный идентификатор : 55986328744159808089854360790848018061 (0x2A1E931F91E54A6AC2B5E747F248968D)
Полное имя : The.Rookie.s01e13.HD720p.mkv
Формат : Matroska
Версия формата : Version 4 / Version 2
Размер файла : 1,61 Гбайт
Продолжительность : 43 м. 31 с.
Общий поток : 5300 Кбит/сек
Дата кодирования : UTC 2019-02-21 09:14:57
Программа кодирования : mkvmerge v28.2.0 ('The Awakening') 64-bit
Библиотека кодирования : libebml v1.3.6 + libmatroska v1.4.9
Writing frontend : StaxRip v2.0.0.0
Видео
Идентификатор : 1
Формат : AVC
Формат/Информация : Advanced Video Codec
Профиль формата : [email protected]
Настройки формата : CABAC / 4 Ref Frames
Параметр CABAC формата : Да
Параметр RefFrames формата : 4 кадра
Идентификатор кодека : V_MPEG4/ISO/AVC
Продолжительность : 43 м. 31 с.
Битрейт : 4018 Кбит/сек
Ширина : 1280 пикселей
Высота : 720 пикселей
Соотношение сторон : 16:9
Режим частоты кадров : Постоянный
Частота кадров : 23,976 (24000/1001) кадра/сек
Цветовое пространство : YUV
Субдискретизация насыщенности : 4:2:0
Битовая глубина : 8 бит
Тип развёртки : Прогрессивная
Бит/(Пиксели*Кадры) : 0.182
Размер потока : 1,22 Гбайт (76%)
Default : Да
Forced : Нет
Аудио #1
Идентификатор : 2
Формат : AC-3
Формат/Информация : Audio Coding 3
Идентификатор кодека : A_AC3
Продолжительность : 43 м. 31 с.
Вид битрейта : Постоянный
Битрейт : 640 Кбит/сек
Каналы : 6 каналов
Расположение каналов : Front: L C R, Side: L R, LFE
Частота : 48,0 КГц
Частота кадров : 31,250 кадров/сек (1536 SPF)
Битовая глубина : 16 бит
Метод сжатия : С потерями
Размер потока : 199 Мбайт (12%)
Язык : Russian
ServiceKind/String : Complete Main
Default : Нет
Forced : Нет
Аудио #2
Идентификатор : 3
Формат : AC-3
Формат/Информация : Audio Coding 3
Идентификатор кодека : A_AC3
Продолжительность : 43 м. 31 с.
Вид битрейта : Постоянный
Битрейт : 640 Кбит/сек
Каналы : 6 каналов
Расположение каналов : Front: L C R, Side: L R, LFE
Частота : 48,0 КГц
Частота кадров : 31,250 кадров/сек (1536 SPF)
Битовая глубина : 16 бит
Метод сжатия : С потерями
Размер потока : 199 Мбайт (12%)
Язык : English
ServiceKind/String : Complete Main
Default : Нет
Forced : Нет
Общее
Уникальный идентификатор : 304617922031487144455494243605463660602 (0xE52B471B865BF5E7A84BEBBE63E7783A)
Полное имя : The.Rookie.s01e14.HD720p.mkv
Формат : Matroska
Версия формата : Version 4 / Version 2
Размер файла : 1,61 Гбайт
Продолжительность : 42 м. 57 с.
Общий поток : 5350 Кбит/сек
Программа кодирования : Lavf57.71.100
Библиотека кодирования : Lavf57.71.100
ErrorDetectionType : Per level 1
Видео
Идентификатор : 1
Формат : AVC
Формат/Информация : Advanced Video Codec
Профиль формата : [email protected]
Настройки формата : CABAC / 4 Ref Frames
Параметр CABAC формата : Да
Параметр RefFrames формата : 4 кадра
Идентификатор кодека : V_MPEG4/ISO/AVC
Продолжительность : 42 м. 57 с.
Битрейт : 3964 Кбит/сек
Ширина : 1280 пикселей
Высота : 720 пикселей
Соотношение сторон : 16:9
Режим частоты кадров : Постоянный
Частота кадров : 23,976 (24000/1001) кадра/сек
Цветовое пространство : YUV
Субдискретизация насыщенности : 4:2:0
Битовая глубина : 8 бит
Тип развёртки : Прогрессивная
Бит/(Пиксели*Кадры) : 0.179
Размер потока : 1,19 Гбайт (74%)
Default : Да
Forced : Нет
Аудио #1
Идентификатор : 2
Формат : AC-3
Формат/Информация : Audio Coding 3
Идентификатор кодека : A_AC3
Продолжительность : 42 м. 57 с.
Вид битрейта : Постоянный
Битрейт : 640 Кбит/сек
Каналы : 6 каналов
Расположение каналов : Front: L C R, Side: L R, LFE
Частота : 48,0 КГц
Частота кадров : 31,250 кадров/сек (1536 SPF)
Битовая глубина : 16 бит
Метод сжатия : С потерями
Задержка видео : 30 мс.
Размер потока : 197 Мбайт (12%)
Язык : Russian
ServiceKind/String : Complete Main
Default : Да
Forced : Нет
Аудио #2
Идентификатор : 3
Формат : AC-3
Формат/Информация : Audio Coding 3
Идентификатор кодека : A_AC3
Продолжительность : 42 м. 57 с.
Вид битрейта : Постоянный
Битрейт : 640 Кбит/сек
Каналы : 6 каналов
Расположение каналов : Front: L C R, Side: L R, LFE
Частота : 48,0 КГц
Частота кадров : 31,250 кадров/сек (1536 SPF)
Битовая глубина : 16 бит
Метод сжатия : С потерями
Задержка видео : 30 мс.
Размер потока : 197 Мбайт (12%)
ServiceKind/String : Complete Main
Default : Да
Forced : Нет
Общее
Уникальный идентификатор : 125398649328281722087554317238194474889 (0x5E56E6C05C92632321F61DCA56B10F89)
Полное имя : The.Rookie.s01e15.HD720p.mkv
Формат : Matroska
Версия формата : Version 4 / Version 2
Размер файла : 1,20 Гбайт
Продолжительность : 42 м. 25 с.
Общий поток : 4066 Кбит/сек
Программа кодирования : Lavf57.71.100
Библиотека кодирования : Lavf57.71.100
ErrorDetectionType : Per level 1
Видео
Идентификатор : 1
Формат : AVC
Формат/Информация : Advanced Video Codec
Профиль формата : [email protected]
Настройки формата : CABAC / 4 Ref Frames
Параметр CABAC формата : Да
Параметр RefFrames формата : 4 кадра
Идентификатор кодека : V_MPEG4/ISO/AVC
Продолжительность : 42 м. 25 с.
Ширина : 1280 пикселей
Высота : 720 пикселей
Соотношение сторон : 16:9
Режим частоты кадров : Постоянный
Частота кадров : 23,976 (24000/1001) кадра/сек
Цветовое пространство : YUV
Субдискретизация насыщенности : 4:2:0
Битовая глубина : 8 бит
Тип развёртки : Прогрессивная
Default : Да
Forced : Нет
Аудио
Идентификатор : 2
Формат : AAC
Формат/Информация : Advanced Audio Codec
Профиль формата : LC
Идентификатор кодека : A_AAC-2
Продолжительность : 42 м. 25 с.
Каналы : 2 канала
Расположение каналов : Front: L R
Частота : 48,0 КГц
Частота кадров : 46,875 кадров/сек (1024 SPF)
Метод сжатия : С потерями
Задержка видео : 1 мс.
Язык : Russian
Default : Да
Forced : Нет
Внимание! В фильме имеется текстовая реклама.
Раздача ведётся путём добавления новых серий; при каждом добавлении создаётся новый торрент.
Чтобы начать докачку новой серии, пользователям необходимо сделать следующее:
1. остановить скачивание,
2. удалить старый торрент у себя из клиента (старые серии удалять не надо),
3. скачать новый торрент и запустить его у себя в клиенте вместо старого, при этом указать клиенту путь в старую папку, куда и должно происходить скачивание новых серий.
Ваш клиент при этом должен произвести хеширование (проверку) старой папки (если не производит сам - помогите ему сделать это), и будет докачивать только те серии которых у вас ещё нет. Старые серии при этом не удаляются, а продолжают раздаваться!
Eсли вы уже удалили старые серии, то предотвратить повторную закачку старых серий можно, отжав галочку в соответствующих местах при запуске нового торрента. По возможности, желательно не удалять старые серии как можно дольше, чтобы релизёр не столько продолжал раздавать старые серии, а смог сконцентрироваться на новых.
Совет для тех, кто не хочет ждать перехеширования:
Создайте ещё одну папку рядом с папкой сериала (рядом, а не в ней!!!). Каждую новую серию после удачной загрузки копируйте в новую папку так чтобы ваша основная папка всегда была пуста. Когда ваш новый торрент предложит вам закачать все файлы, выберете только последнюю. Для сидирования же укажите адрес новой папки.
Торрент обновлен 8.03.2019, добавлена 15 серия. Просьба перекачать торрент-файл.
Download / Скачать

Хотите скачать бесплатно? Зарегистрируйтесь на сайте (ссылка на регистрацию). Pirat.ca - самый быстрый торрент трекер в рунете!

Как скачивать  ·   Что такое торрент  ·   Рейтинг и ограничения



Последний раз редактировалось: Vladimir14 (2019-03-09 01:02), всего редактировалось 12 раз(а)

Андря

8681

Пост 21-Фев-2019 04:20 (спустя 2 дня 14 часов)

[Q] 

Vladimir14, будет ли пополняться сериал?

_________________
Като Тешекика
[Профиль]  [ЛС] 

Vladimir14 ®

Гроза морей

325

Пост 21-Фев-2019 11:48 (спустя 7 часов)

[Q] 

Андря, Да, 13 серия уже на подходе
Странно личеры есть, а скачивание не идет...

_________________
Дорогу осилит идущий...
[Профиль]  [ЛС] 

Андря

8681

Пост 22-Фев-2019 03:03 (спустя 15 часов)

[Q] 

Vladimir14, это я скачиваю, но у меня МТС через симкарту, скорости нету совсем

_________________
Като Тешекика
[Профиль]  [ЛС] 

Vladimir14 ®

Гроза морей

325

Пост 22-Фев-2019 05:29 (спустя 2 часа 26 минут)

[Q] 

Добавлена 13 серия. Просьба перекачать торрент-файл.

_________________
Дорогу осилит идущий...
[Профиль]  [ЛС] 

IgorWOO

Корсар

Пост 22-Фев-2019 07:52 (спустя 2 часа 22 минуты)

[Q] 

Спасибо...сюжет давно известный...после развода с женой жизнь только начинается!-) В РФ настойчиво прививается идеология раба, в которой человек до 35 якобы востребован, потом работу с трудом ищешь, хотя в 35 человек только созревает для карьерной, социальной и прочей жизни, включается думалка, демонтируется ненужный брак заключенный по молодости...в развитых странах это работает у нас называется тупиком - кризис среднего возраста..
[Профиль]  [ЛС] 

Сумрак

1733

Пост 27-Фев-2019 23:51 (спустя 5 дней)

[Q] 

поддержу )) скачаю час хотя смотрелIgorWOO,
Добавлено спустя 5 минут 29 секунд:
837232Спасибо...сюжет давно известный...после развода с женой жизнь только начинается!-) В РФ настойчиво прививается идеология раба, в которой человек до 35 якобы востребован, потом работу с трудом ищешь, хотя в 35 человек только созревает для карьерной, социальной и прочей жизни, включается думалка, демонтируется ненужный брак заключенный по молодости...в развитых странах это работает у нас называется тупиком - кризис среднего возраста..
и не только надо с молодыми разбираться для начала вон у на с банда малолеток битами забивают взрослых это дети 12-15 лет что дальше будет .. я так сразу принял решение случись такое с кем то из моих выловлю и руки с ногами переломаю .. и кстати это по всей россии такое идет бабулек малолетки грабят
а ты фильм так и не понял тут не про востребования
а то что человек нашел в себе силы начать все с нуля у нас в россии хрен дадут такое реализовать именно у нас нет такого что ты если полн сил в армии готов служить или полиции тебя пошлют не дадут работать
честно я патриот но за такое правительство как у нас воевать не буду и так далее слинял бы давно где мой талант оценят и не будут последнею копейку забирать и травить пальмовым маслом .. принципиально затариваюсь два раза в месяц в Финляндии качество продуктов небо и земля сы р как сыр а не галимое пластмасовое ггг даже за много к рублей
и разница знаешь какая у нас и у них наших детей балуют не приучают работать с детства мама сделает папа купит... у них .... вот отучил ... теперь ты умный работай , там учат работать и жить самостоятельно у нас такие единицы отслаьные все надеются что на блюдечке принесут

_________________
http://afire-space.com - AFIRE3D проект полная переделка 2moons вход только по invite команды тестеров , или моему личному приглашению промо-старого теста https://yadi.sk/i/qpg7LH1k53Z5MQ.. отличное сочетание крафта и woa(xterium наш партнер https://ru.xterium.com)
[Профиль]  [ЛС] 

IgorWOO

Корсар

Пост 02-Мар-2019 01:16 (спустя 2 дня 1 час)

[Q] 

837450 поддержу )) скачаю час хотя смотрелIgorWOO,
Добавлено спустя 5 минут 29 секунд:
Спасибо...сюжет давно известный...после развода с женой жизнь только начинается!-) В РФ настойчиво прививается идеология раба, в которой человек до 35 якобы востребован, потом работу с трудом ищешь, хотя в 35 человек только созревает для карьерной, социальной и прочей жизни, включается думалка, демонтируется ненужный брак заключенный по молодости...в развитых странах это работает у нас называется тупиком - кризис среднего возраста..
Доброго времени!
Я комментарий писал на момент скачивания, просто выдал мнение, эмоции переполнили. С этим актером знаком еще с первого эпизода "Светлячка" (первого и последнего, хотя сюжет весьма не плох) А про сложности жизни в РФ согласен, и воевать за Мутина с олигархатом не стану, да они и вроде не просят, вон вводят платников, Росгвардия во главе с неадекватным генералом-рыбой. Продукты дрянь - молоко порошок, сметана пластик, творог комками крахмала, работа стрессы и переработка, про карьеру можно забыть, везде только "удобные" люди в почете. Друзья в ипотеках, семьях и на жалких работах с переработками за крохи, родственники либо поумирали, либо старые сидят-лишь бы пожить еще. Жаловаться не куда и бить в колокол не дадут, на ютуб одни обсуждения, но никаких реальных действий так и не наступит. А воевать если и заставят, то только за семью, друзей и их семей. По поводу детей согласен отчасти, да все так же как и у них, просто возраст взросления наступает позже, там система хоть как то настроена на сепарацию детей, у нас система в целом геноцид, а тут как говориться не до проблем детей - в планах шайки-лейки их не должно быть, жалко что до 80хх годков страна для чего пыхтела, хотела (в т.ч. великая победа 45ого) и чтоб вот так разом поставить народ на колени да еще и наблюдать за этими людьми по всем каналам до сих пор. Сколько не думаю так и не могу найти ответ, что же дальше.
[Профиль]  [ЛС] 

Vladimir14 ®

Гроза морей

325

Пост 02-Мар-2019 18:45 (спустя 17 часов)

[Q] 

Добавлена 14 серия. Просьба перекачать торрент-файл.

_________________
Дорогу осилит идущий...
[Профиль]  [ЛС] 

Kmscom

Морской Волк

Пост 04-Мар-2019 12:49 (спустя 1 день 18 часов)

[Q] 

Какой-то "пластмассовый" фильм. Сильно похож на фильм-инструкцию "каким должен быть полицейский", какие должны быть эмоции и проблемы и как их решать.
Смотрел смотрел как он мучается от простых проблем, но когда свадьбу пид.р.сов прорекламировали как самое обычное явление - стер эту ересь нах.й.
И жизнь начинается когда ее начнешь, а не когда в "кино покажут, мама, жена или страшный путин разрешит".
Хоть 40, хоть в 50.
[Профиль]  [ЛС] 

asdes

Штурман

Пост 04-Мар-2019 13:20 (спустя 31 минута)

[Q] 

на Loste без рекламы....
[Профиль]  [ЛС] 

Vladimir14 ®

Гроза морей

325

Пост 08-Мар-2019 14:17 (спустя 4 дня)

[Q] 

Добавлена 15 серия. Просьба перекачать торрент-файл.

_________________
Дорогу осилит идущий...
[Профиль]  [ЛС] 

MasterZ

Лоцман

Пост 11-Мар-2019 15:00 (спустя 3 дня)

[Q] 

Станьте кто-то на раздачу, плиз, скачать 15 серию
Добавлено спустя 42 секунды:
Я после раздачи посидирую
[Профиль]  [ЛС] 

MasterZ

Лоцман

Пост Сегодня 18:08 (спустя 8 дней)

[Q] 

Спасибо. Скачал последнюю серию, раздаю с 9 до 18 с Пн по Пт
[Профиль]  [ЛС] 
Показать сообщения:    
Ответить на тему

Текущее время: Сегодня 23:27

Часовой пояс: GMT + 4



Вы не можете начинать темы
Вы не можете отвечать на сообщения
Вы не можете редактировать свои сообщения
Вы не можете удалять свои сообщения
Вы не можете голосовать в опросах
Вы не можете прикреплять файлы к сообщениям
Вы не можете скачивать файлы

Майнать ▼