Новобранец / The Rookie / Сезон: 1 / Серии: 1-15 из 20 (Майкл Гои / Michael Goi, Грег Биман / Greg Beeman, Тимоти Басфилд / Timothy Busfield) [2018 г., драма, криминал, WEB-DL, 1080p] MVO (TVShow)

Ответить на тему
 
Автор
Сообщение

Пост 18-Фев-2019 16:13

[Q] 

AlexDjas

Гроза морей

--Новобранец / The Rookie-- Производство: США
Жанр: драма, криминал
Год выпуска: 2018 г.
Продолжительность: ~00:43:00 - 1 серия
Мировая премьера: 16 октября 2018
Перевод: Любительский (многоголосый, закадровый) [TVShows]
Режиссёр: Майкл Гои / Michael Goi, Грег Биман / Greg Beeman, Тимоти Басфилд / Timothy Busfield--В ролях: Нэйтан Филлион, Алисса Диас, Титус Макин мл., Эрик Винтер, Ричард Т. Джонс, Мелисса О’Нил, Мерседес Масон, Эфтон Уильямсон, Марсей Монро, Дэвид ДеСантос и др.--Описание: Начинать с чистого листа всегда нелегко, особенно для уроженца маленького городка Джона Нолана, который после инцидента, перевернувшего его жизнь, решил воплотить в жизнь давнюю мечту и присоединиться к полиции Лос-Анджелеса. Возрастного новичка встречают с понятным скептицизмом, однако жизненный опыт, упорство и чувство юмора дают Джону преимущество.-- Качество видео: WEB-DL
Контейнер: MKV
Стандарт разрешения: 1080p
Видео кодек: MPEG4 AVC
Аудио кодек: AC3
Видео: H.264/AVC, 1920x1080, 7024 kbps, 23.976 fps
Аудио: AC3, 48.0 kHz, 6 ch, 384 kbps
Cубтитры: отсутствуют
General
Unique ID : 23268114720363221809765882483813872993 (0x118146A0A8502B8923CB2315218F7561)
Complete name : D:\Торрент\The_Rookie_S01_1080p[pirat.ca]\The_Rookie_S01E01.mkv
Format : Matroska
Format version : Version 4
File size : 2.23 GiB
Duration : 43 min 1 s
Overall bit rate : 7 410 kb/s
Encoded date : UTC 2019-02-18 11:25:19
Writing application : mkvmerge v31.0.0 ('Dolores In A Shoestand') 64-bit
Writing library : libebml v1.3.6 + libmatroska v1.4.9
Video
ID : 1
Format : AVC
Format/Info : Advanced Video Codec
Format profile : [email protected]
Format settings : CABAC / 4 Ref Frames
Format settings, CABAC : Yes
Format settings, ReFrames : 4 frames
Codec ID : V_MPEG4/ISO/AVC
Duration : 43 min 1 s
Bit rate : 7 024 kb/s
Width : 1 920 pixels
Height : 1 080 pixels
Display aspect ratio : 16:9
Frame rate mode : Constant
Frame rate : 23.976 (24000/1001) FPS
Color space : YUV
Chroma subsampling : 4:2:0
Bit depth : 8 bits
Scan type : Progressive
Bits/(Pixel*Frame) : 0.141
Stream size : 2.11 GiB (95%)
Language : English
Default : Yes
Forced : No
Color range : Limited
Color primaries : BT.709
Transfer characteristics : BT.709
Matrix coefficients : BT.709
Audio
ID : 2
Format : AC-3
Format/Info : Audio Coding 3
Commercial name : Dolby Digital
Codec ID : A_AC3
Duration : 43 min 1 s
Bit rate mode : Constant
Bit rate : 384 kb/s
Channel(s) : 6 channels
Channel layout : L R C LFE Ls Rs
Sampling rate : 48.0 kHz
Frame rate : 31.250 FPS (1536 SPF)
Bit depth : 16 bits
Compression mode : Lossy
Stream size : 118 MiB (5%)
Title : TVShows
Language : Russian
Service kind : Complete Main
Default : Yes
Forced : No
Раздача ведётся путём добавления новых серий; при каждом добавлении создаётся новый торрент.
Чтобы начать докачку новой серии, пользователям необходимо сделать следующее:
1. остановить скачивание,
2. удалить старый торрент у себя из клиента (старые серии удалять не надо),
3. скачать новый торрент и запустить его у себя в клиенте вместо старого, при этом указать клиенту путь в старую папку, куда и должно происходить скачивание новых серий.
Ваш клиент при этом должен произвести хеширование (проверку) старой папки (если не производит сам - помогите ему сделать это), и будет докачивать только те серии которых у вас ещё нет. Старые серии при этом не удаляются, а продолжают раздаваться!
Eсли вы уже удалили старые серии, то предотвратить повторную закачку старых серий можно, отжав галочку в соответствующих местах при запуске нового торрента. По возможности, желательно не удалять старые серии как можно дольше, чтобы релизёр не столько продолжал раздавать старые серии, а смог сконцентрироваться на новых.
Совет для тех, кто не хочет ждать перехеширования:
Создайте ещё одну папку рядом с папкой сериала (рядом, а не в ней!!!). Каждую новую серию после удачной загрузки копируйте в новую папку так чтобы ваша основная папка всегда была пуста. Когда ваш новый торрент предложит вам закачать все файлы, выберете только последнюю. Для сидирования же укажите адрес новой папки.
Как закачать отдельный файл из торрента или докачать ранее пропущенные файлы торрента!
1. Открыть торрент
2. Снять галки с тех файлов торрента, которые мы не хотим закачивать. Оставляем только на нужных нам файлах (файле).
3. Нажать О.К.
В клиенте utorrent
Инструкция
1) Открыть торрент

2) Снять галки с тех файлов торрента, которые мы не хотим закачивать:
* либо вручную, снимая с каждого файла галку( скрин №1)
* либо, нажав кнопку "Снять метки (Select None)", сняв сразу со всех файлов(скрин №2)
№1

№2

Оставляем только на нужных нам файлах (файле).

3)Нажать О.К
--Без рекламы!--
Download / Скачать

Хотите скачать бесплатно? Зарегистрируйтесь на сайте (ссылка на регистрацию). Pirat.ca - самый быстрый торрент трекер в рунете!

Как скачивать  ·   Что такое торрент  ·   Рейтинг и ограничения



Последний раз редактировалось: AlexDjas (2019-03-17 17:39), всего редактировалось 4 раз(а)

AlexDjas ®

Гроза морей

8879

Пост 22-Фев-2019 11:47 (спустя 3 дня)

[Q] 

Добавлена 12 серия. Перекачайте торрент.

_________________
- Один терапевт - это 1024 гигапевта, или 1048576 мегапевтов!
[Профиль]  [ЛС] 

AlexDjas ®

Гроза морей

8879

Пост 27-Фев-2019 11:55 (спустя 5 дней)

[Q] 

Добавлена 13 серия

_________________
- Один терапевт - это 1024 гигапевта, или 1048576 мегапевтов!
[Профиль]  [ЛС] 

Сумрак

1733

Пост 27-Фев-2019 23:25 (спустя 11 часов)

[Q] 

хороший сериал спокойный и интересный рейтинг 10 из 10 на многих ресурсах

_________________
http://afire-space.com - AFIRE3D проект полная переделка 2moons вход только по invite команды тестеров , или моему личному приглашению промо-старого теста https://yadi.sk/i/qpg7LH1k53Z5MQ.. отличное сочетание крафта и woa(xterium наш партнер https://ru.xterium.com)
[Профиль]  [ЛС] 

AlexDjas ®

Гроза морей

8879

Пост 10-Мар-2019 09:27 (спустя 10 дней)

[Q] 

Добавлена 14 серия.

_________________
- Один терапевт - это 1024 гигапевта, или 1048576 мегапевтов!
[Профиль]  [ЛС] 

AlexDjas ®

Гроза морей

8879

Пост 17-Мар-2019 17:38 (спустя 7 дней)

[Q] 

Добавлена 15 серия.

_________________
- Один терапевт - это 1024 гигапевта, или 1048576 мегапевтов!
[Профиль]  [ЛС] 
Показать сообщения:    
Ответить на тему

Текущее время: Сегодня 23:30

Часовой пояс: GMT + 4



Вы не можете начинать темы
Вы не можете отвечать на сообщения
Вы не можете редактировать свои сообщения
Вы не можете удалять свои сообщения
Вы не можете голосовать в опросах
Вы не можете прикреплять файлы к сообщениям
Вы не можете скачивать файлы

Майнать ▼