Оверлорд / Overlord (Джулиус Эйвери / Julius Avery) [2018 г., Ужасы, фантастика, боевик, военный, BDRip-AVC] MVO HDRezka Studio

Ответить на тему
 
Автор
Сообщение

Пост 04-Мар-2019 20:04

[Q] 

Evgesha 76

Корсар

-Оверлорд / Overlord --Производство: США, Канада
Год выпуска: 2018 г.
Жанр: Ужасы, фантастика, боевик, военный
Продолжительность: 01:49:47
Мировая премьера: 22 сентября 2018,
Российская премьера: 8 ноября 2018, «Централ Партнершип»
Дата выхода Blu-Ray: 14 февраля 2019, «Paramount»
Перевод: Любительский (многоголосый, закадровый) [HDRezka Studio]
Режиссёр: Джулиус Эйвери / Julius Avery-В ролях: Джован Адепо, Уайатт Расселл, Матильда Олливье, Йохан Филип Асбек, Джон Магаро, Иэн де Кестекер, Джейкоб Андерсон, Доминик Эпплуайт, Джанни Тофер, Джозеф Куинн, Боким Вудбайн, Эрих Редман, Марк Маккенна, Хейли Кармайкл, Марк Риссман, Мэг Фостер, Сара Финиган, Гюнтер Вюргер, Бен Тавассоли.-Описание: Накануне высадки союзников в Нормандии отряд американских десантников проникают в оккупированный немцами посёлок, чтобы разрушить их радиомачту. Лазутчикам предстоит столкнуться не только с военными, но и с жуткими последствиями нацистских экспериментов.-
Качество видео: BDRip-AVC
Контейнер: MKV
Видео кодек: MPEG4 AVC
Аудио кодек: AC3
Видео: 1024x426 (2.40:1), 23,976 fps, MPEG-4 AVC 1847 kbps avg, 0.177 bit/pixel
Аудио: 48 kHz, AC3, 2 ch, 192 kbps avg |русский|
Cубтитры: отсутствуют
Общее
Уникальный идентификатор : 224830765068167522036551337682045299836 (0xA924D48DA6BCAAF7B041D20DC4E8EC7C)
Полное имя : Overlord.mkv
Формат : Matroska
Версия формата : Version 4 / Version 2
Размер файла : 1,57 Гбайт
Продолжительность : 1 ч. 50 м.
Общий поток : 2031 Кбит/сек
Название фильма : Overlord.2018 #TorpedoUK#
Дата кодирования : UTC 2019-02-26 01:24:27
Программа кодирования : mkvmerge v17.0.0 ('Be Ur Friend') 64-bit
Библиотека кодирования : libebml v1.3.5 + libmatroska v1.4.8
Видео
Идентификатор : 1
Формат : AVC
Формат/Информация : Advanced Video Codec
Профиль формата : [email protected]
Настройки формата : CABAC / 10 Ref Frames
Параметр CABAC формата : Да
Параметр RefFrames формата : 10 кадров
Идентификатор кодека : V_MPEG4/ISO/AVC
Продолжительность : 1 ч. 49 м.
Битрейт : 1847 Кбит/сек
Ширина : 1024 пикселя
Высота : 426 пикселей
Соотношение сторон : 2,40:1
Режим частоты кадров : Постоянный
Частота кадров : 23,976 (24000/1001) кадра/сек
Цветовое пространство : YUV
Субдискретизация насыщенности : 4:2:0
Битовая глубина : 8 бит
Тип развёртки : Прогрессивная
Бит/(Пиксели*Кадры) : 0.177
Размер потока : 1,42 Гбайт (90%)
Библиотека кодирования : x264 core 146 r2538 121396c
Настройки программы : cabac=1 / ref=10 / deblock=1:-2:-3 / analyse=0x3:0x113 / me=umh / subme=11 / psy=1 / psy_rd=0.97:0.05 / mixed_ref=1 / me_range=48 / chroma_me=1 / trellis=2 / 8x8dct=1 / cqm=0 / deadzone=21,11 / fast_pskip=1 / chroma_qp_offset=-3 / threads=6 / lookahead_threads=1 / sliced_threads=0 / nr=0 / decimate=1 / interlaced=0 / bluray_compat=0 / constrained_intra=0 / bframes=11 / b_pyramid=2 / b_adapt=2 / b_bias=0 / direct=3 / weightb=1 / open_gop=0 / weightp=2 / keyint=240 / keyint_min=23 / scenecut=40 / intra_refresh=0 / rc_lookahead=40 / rc=2pass / mbtree=0 / bitrate=1847 / ratetol=1.0 / qcomp=0.60 / qpmin=0 / qpmax=69 / qpstep=4 / cplxblur=20.0 / qblur=0.5 / vbv_maxrate=50000 / vbv_bufsize=62500 / nal_hrd=none / filler=0 / ip_ratio=1.40 / pb_ratio=1.30 / aq=1:1.00
Язык : English
Default : Да
Forced : Нет
Аудио
Идентификатор : 2
Формат : AC-3
Формат/Информация : Audio Coding 3
Идентификатор кодека : A_AC3
Продолжительность : 1 ч. 50 м.
Вид битрейта : Постоянный
Битрейт : 192 Кбит/сек
Каналы : 2 канала
Расположение каналов : Front: L R
Частота : 48,0 КГц
Частота кадров : 31,250 кадров/сек (1536 SPF)
Битовая глубина : 16 бит
Метод сжатия : С потерями
Размер потока : 152 Мбайт (9%)
Заголовок : MVO [HDRezka Studio]
Язык : Russian
ServiceKind/String : Complete Main
Default : Нет
Forced : Нет
Download / Скачать

Хотите скачать бесплатно? Зарегистрируйтесь на сайте (ссылка на регистрацию). Pirat.ca - самый быстрый торрент трекер в рунете!

Как скачивать  ·   Что такое торрент  ·   Рейтинг и ограничения



Последний раз редактировалось: Evgesha 76 (2019-03-05 06:38), всего редактировалось 2 раз(а)

Андря

8691

Пост 04-Мар-2019 21:51 (спустя 1 час 47 минут)

[Q] 

постер не более 500х500
скриншоты не должны быть кликабельны.
Добавлено спустя 1 час 1 минута 47 секунд:
у вас размер скриншота 640х266
нужно 1024x426

_________________
Като Тешекика
[Профиль]  [ЛС] 

Evgesha 76 ®

Корсар

1938

Пост 04-Мар-2019 22:25 (спустя 33 минуты)

[Q] 

Ничего не пойму с этими скриншотами.Как их там правильно сделать?
[Профиль]  [ЛС] 

Андря

8691

Пост 04-Мар-2019 22:42 (спустя 17 минут)

[Q] 

Evgesha 76, Снятие скриншотов с видео
выбирайте любой способ. на хостинге снимите галочку "уменьшать до" или что то подобное.

_________________
Като Тешекика
[Профиль]  [ЛС] 

Evgesha 76 ®

Корсар

1938

Пост 05-Мар-2019 06:15 (спустя 7 часов)

[Q] 

Ну снял я скриншоты,а дальше что?
https://vfl.ru/index.sema?a=fotos&sa=kod&fr...5e40d10e25639560
[Профиль]  [ЛС] 

kugesan

63295

Пост 05-Мар-2019 20:14 (спустя 13 часов)

[Q] 

837617Перевод: Профессиональный (многоголосый, закадровый) [HDRezka Studio]
Профессиональный ???

_________________
В мире две бесконечности: вселенная и человеческая глупость - Альберт Эйнштен
«Можно вытащить человека из грязи, но нельзя вытащить грязь из человека»!
[Профиль]  [ЛС] 

Evgesha 76 ®

Корсар

1938

Пост 05-Мар-2019 20:20 (спустя 5 минут)

[Q] 

837650
837617Перевод: Профессиональный (многоголосый, закадровый) [HDRezka Studio]
Профессиональный ???
[url]там[/url]
Так сказано было.
[Профиль]  [ЛС] 

Андря

8691

Пост 06-Мар-2019 00:42 (спустя 4 часа)

[Q] 

837631
Ну снял я скриншоты,а дальше что?
https://vfl.ru/index.sema?a=fotos&sa=kod&fr...5e40d10e25639560
ссылка крайняя справа снизу
Код:
[thumb]http://images.vfl.ru/ii/1551751756/5e40d10e/25639560.jpg[/thumb]

_________________
Като Тешекика
[Профиль]  [ЛС] 

kugesan

63295

Пост 06-Мар-2019 19:17 (спустя 18 часов)

[Q] 

837651
837650
837617Перевод: Профессиональный (многоголосый, закадровый) [HDRezka Studio]
Профессиональный ???
[url]***[/url]
Так сказано было.
Кем сказано???

_________________
В мире две бесконечности: вселенная и человеческая глупость - Альберт Эйнштен
«Можно вытащить человека из грязи, но нельзя вытащить грязь из человека»!
[Профиль]  [ЛС] 

Evgesha 76 ®

Корсар

1938

Пост 07-Мар-2019 02:49 (спустя 7 часов)

[Q] 

837676
837651
837650
837617Перевод: Профессиональный (многоголосый, закадровый) [HDRezka Studio]
Профессиональный ???
[url]***[/url]
Так сказано было.
Кем сказано???
Я не знаю.На Рутторе было написано.А что,HD Rezka Studio Любительский?
[Профиль]  [ЛС] 

landsir

Морской Волк

Пост 02-Май-2019 20:19 (спустя 1 месяц 26 дней)

[Q] 

качество отличное на любителя, в стиле бункера
[Профиль]  [ЛС] 
Показать сообщения:    
Ответить на тему

Текущее время: Сегодня 07:17

Часовой пояс: GMT + 4



Вы не можете начинать темы
Вы не можете отвечать на сообщения
Вы не можете редактировать свои сообщения
Вы не можете удалять свои сообщения
Вы не можете голосовать в опросах
Вы не можете прикреплять файлы к сообщениям
Вы не можете скачивать файлы

Майнать ▼