Оверлорд / Overlord (Джулиус Эйвери / Julius Avery) [2018 г., Ужасы, фантастика, боевик, военный, BDRip, 720р] dub (R5) - Original (Eng)

Ответить на тему
 
Автор
Сообщение

Пост 06-Мар-2019 22:03

[Q] 

gross1978

-Оверлорд / Overlord --Производство: США, Канада
Год выпуска: 2018 г.
Жанр: Ужасы, фантастика, боевик, военный
Продолжительность: 01:49:47
Мировая премьера: 22 сентября 2018,
Российская премьера: 8 ноября 2018, «Централ Партнершип»
Дата выхода Blu-Ray: 14 февраля 2019, «Paramount»
Перевод: Профессиональный (полное дублирование) [Лицензия / BD CEE]
Оригинальный аудиопоток: Английский
Режиссёр: Джулиус Эйвери / Julius Avery-В ролях: Джован Адепо, Уайатт Расселл, Матильда Олливье, Йохан Филип Асбек, Джон Магаро, Иэн де Кестекер, Джейкоб Андерсон, Доминик Эпплуайт, Джанни Тофер, Джозеф Куинн, Боким Вудбайн, Эрих Редман, Марк Маккенна, Хейли Кармайкл, Марк Риссман, Мэг Фостер, Сара Финиган, Гюнтер Вюргер, Бен Тавассоли.-Описание: Накануне высадки союзников в Нормандии отряд американских десантников проникают в оккупированный немцами посёлок, чтобы разрушить их радиомачту. Лазутчикам предстоит столкнуться не только с военными, но и с жуткими последствиями нацистских экспериментов.-
Качество видео: BDRip, 720р
Контейнер: MKV
Видео кодек: H.264
Аудио кодек: AC3
Видео: 1280x536 23.976fps, 4 317 Kbps, 0.262 bit/pixel
Аудио #1: Dolby AC3 48000Hz 6ch 640kbps - dub (BD CEE)
Аудио #2: Dolby AC3 48000Hz 6ch 640kbps - original
Cубтитры: русские (форсированные, полные) английские (полные, SDH)
General
Unique ID : 242892101564902203125902013116396195166 (0xB6BB5131C8CC042A97829E9E643DCD5E)
Format : Matroska
Format version : Version 2
File size : 4.38 GiB
Duration : 1h 49mn
Overall bit rate : 5 710 Kbps
Movie name : rip by Gross
Encoded date : UTC 2019-02-25 17:12:49
Writing application : mkvmerge v4.7.0 ('Just Like You Imagined') сборка от Apr 21 2011 01:13:14
Writing library : libebml v1.2.0 + libmatroska v1.1.0
Video
ID : 1
Format : AVC
Format/Info : Advanced Video Codec
Format profile : [email protected]
Format settings, CABAC : Yes
Format settings, ReFrames : 11 frames
Codec ID : V_MPEG4/ISO/AVC
Duration : 1h 49mn
Bit rate : 4 317 Kbps
Width : 1 280 pixels
Height : 536 pixels
Display aspect ratio : 2.40:1
Frame rate mode : Constant
Frame rate : 23.976 fps
Color space : YUV
Chroma subsampling : 4:2:0
Bit depth : 8 bits
Scan type : Progressive
Bits/(Pixel*Frame) : 0.262
Stream size : 3.31 GiB (76%)
Writing library : x264 core 157 r2867+103 0d6443f t_mod_Custom_2 [[email protected] X86]
Encoding settings : cabac=1 / ref=11 / deblock=1:-3:-3 / analyse=0x3:0x133 / me=hex / subme=11 / psy=1 / fade_compensate=0.00 / psy_rd=1.00:0.05 / mixed_ref=1 / me_range=16 / chroma_me=1 / trellis=2 / 8x8dct=1 / cqm=0 / deadzone=21,11 / fast_pskip=0 / chroma_qp_offset=-3 / threads=9 / lookahead_threads=2 / sliced_threads=0 / nr=0 / decimate=1 / interlaced=0 / bluray_compat=0 / constrained_intra=0 / fgo=0 / bframes=9 / b_pyramid=2 / b_adapt=1 / b_bias=0 / direct=1 / weightb=1 / open_gop=0 / weightp=2 / keyint=250 / keyint_min=23 / scenecut=40 / intra_refresh=0 / rc=crf / mbtree=0 / crf=17.0000 / qcomp=0.60 / qpmin=0:0:0 / qpmax=69:69:69 / qpstep=4 / ip_ratio=1.40 / pb_ratio=1.30 / aq=1:1.00 / aq-sensitivity=10.00 / aq-factor=1.00:1.00:1.00 / aq2=0 / aq3=0
Language : English
Default : Yes
Forced : No
Audio #1
ID : 2
Format : AC-3
Format/Info : Audio Coding 3
Mode extension : CM (complete main)
Format settings, Endianness : Big
Codec ID : A_AC3
Duration : 1h 49mn
Bit rate mode : Constant
Bit rate : 640 Kbps
Channel(s) : 6 channels
Channel positions : Front: L C R, Side: L R, LFE
Sampling rate : 48.0 KHz
Bit depth : 16 bits
Compression mode : Lossy
Stream size : 503 MiB (11%)
Title : dub (BD CEE)
Language : Russian
Default : Yes
Forced : Yes
Audio #2
ID : 3
Format : AC-3
Format/Info : Audio Coding 3
Mode extension : CM (complete main)
Format settings, Endianness : Big
Codec ID : A_AC3
Duration : 1h 49mn
Bit rate mode : Constant
Bit rate : 640 Kbps
Channel(s) : 6 channels
Channel positions : Front: L C R, Side: L R, LFE
Sampling rate : 48.0 KHz
Bit depth : 16 bits
Compression mode : Lossy
Stream size : 503 MiB (11%)
Title : original
Language : English
Default : No
Forced : No
Text #1
ID : 4
Format : UTF-8
Codec ID : S_TEXT/UTF8
Codec ID/Info : UTF-8 Plain Text
Title : Forced
Language : Russian
Default : Yes
Forced : Yes
Text #2
ID : 5
Format : UTF-8
Codec ID : S_TEXT/UTF8
Codec ID/Info : UTF-8 Plain Text
Title : Full
Language : Russian
Default : No
Forced : No
Text #3
ID : 6
Format : UTF-8
Codec ID : S_TEXT/UTF8
Codec ID/Info : UTF-8 Plain Text
Title : SDH
Language : English
Default : No
Forced : No
Menu
00:00:00.000 : en:Chapter 01
00:06:31.099 : en:Chapter 02
00:13:47.493 : en:Chapter 03
00:20:31.313 : en:Chapter 04
00:26:27.795 : en:Chapter 05
00:34:08.964 : en:Chapter 06
00:41:10.593 : en:Chapter 07
00:48:41.377 : en:Chapter 08
00:55:50.889 : en:Chapter 09
01:03:21.464 : en:Chapter 10
01:10:28.599 : en:Chapter 11
01:17:21.887 : en:Chapter 12
01:25:47.601 : en:Chapter 13
01:32:19.159 : en:Chapter 14
01:38:48.464 : en:Chapter 15
01:42:39.195 : en:Chapter 16
Download / Скачать

Хотите скачать бесплатно? Зарегистрируйтесь на сайте (ссылка на регистрацию). Pirat.ca - самый быстрый торрент трекер в рунете!

Как скачивать  ·   Что такое торрент  ·   Рейтинг и ограничения



Последний раз редактировалось: gross1978 (2019-03-06 22:45), всего редактировалось 12 раз(а)

alex198408

Корсар

Пост 07-Мар-2019 00:16 (спустя 2 часа 13 минут)

[Q] 

благодарю !!! Автору респект!!!
[Профиль]  [ЛС] 

TinivoyZZ

Шкипер

Пост 07-Мар-2019 18:26 (спустя 18 часов)

[Q] 

Супер! Спасибо!!!
[Профиль]  [ЛС] 

BiOHAZARD

Корсар

713

Пост 09-Мар-2019 01:35 (спустя 1 день 7 часов)

[Q] 

Автору респект!!! Но сам фильм на любителя!
[Профиль]  [ЛС] 

D_Ex

Корсар

104

Пост 23-Мар-2019 16:36 (спустя 14 дней)

[Q] 

Нормальное одноразовое кино. Авторы фильма явно фанаты серии игр Wolfenstein :)))
[Профиль]  [ЛС] 

ars14rhbz

Морской Волк

Пост 24-Мар-2019 00:51 (спустя 8 часов)

[Q] 

Прикольная сказка на 1 раз. Автору бочку в трюм! Лови бочку
[Профиль]  [ЛС] 

the_lame

Флибустьер

Пост 30-Мар-2019 17:51 (спустя 6 дней)

[Q] 

Трэш, такого я в 90-е насмотрелся
[Профиль]  [ЛС] 

MusicAwards

Лоцман

Пост 01-Апр-2019 08:06 (спустя 1 день 14 часов)

[Q] 

Ахахах чушь несусветная!
[Профиль]  [ЛС] 
Показать сообщения:    
Ответить на тему

Текущее время: Сегодня 07:29

Часовой пояс: GMT + 4



Вы не можете начинать темы
Вы не можете отвечать на сообщения
Вы не можете редактировать свои сообщения
Вы не можете удалять свои сообщения
Вы не можете голосовать в опросах
Вы не можете прикреплять файлы к сообщениям
Вы не можете скачивать файлы

Майнать ▼