Как я стал русским (Акаки Сахелашвили, Ся Хао) [2018 г., Комедия, WEB-DL, 1080p]

Ответить на тему
 
Автор
Сообщение

Пост 08-Мар-2019 09:13

[Q] 

AlexDjas

Гроза морей

--Как я стал русским-- Производство: Россия, Китай
Режиссёр: Акаки Сахелашвили, Ся Хао
Жанр: Комедия
Год выпуска: 2018 г.
Продолжительность: 01:34:10
Российская премьера: 7 февраля 2019, «Централ Партнершип»
В ролях: Дун Чан, Елизавета Кононова, Виталий Хаев, Грант Тохатян, Сергей Чирков, Наталья Суркова, Вадим Смирнов, Дмитрий Смирнов, Александр Семенов, Вера Гурьева--Описание: Понравиться отцу своей невесты — задача не из легких. С этой проблемой сталкивается и китайский парень Пен, когда отправляется в Москву за своей любовью — Ирой, даже не подозревая, какой кошмар его ждет. Ведь ее отец Анатолий совсем не готов отдавать свою дочь первому встречному, и у него на этот случай припасен свой план по избавлению…
Однако, отцу невесты и жениху придется научиться уважать друг друга, если они хотят сохранить рядом с собой девушку, которую любят больше всего на свете.-- Качество видео: WEB-DL
Контейнер: MKV
Стандарт разрешения: 1080p
Видео кодек: MPEG4 AVC
Аудио кодек: AC3
Видео: H.264/AVC, 1920x804, ~4574 Кbps, 24 fps
Аудио: 48 kHz, AC3 Dolby Digital, 3/2 (L,C,R,l,r) + LFE ch, ~384 kbps
Cубтитры: отсутствуют
General
Unique ID : 301021144628884441493819463277237797165 (0xE276904A481E2B3C98AE0EB73B70812D)
Complete name : D:\Фильмы\Kak_ya_stal_russkim_WEB-DL_1080p[pirat.ca].mkv
Format : Matroska
Format version : Version 4
File size : 3.26 GiB
Duration : 1 h 34 min
Overall bit rate : 4 960 kb/s
Movie name : Kak_ya_stal_russkim
Encoded date : UTC 2019-03-08 04:47:12
Writing application : mkvmerge v31.0.0 ('Dolores In A Shoestand') 64-bit
Writing library : libebml v1.3.6 + libmatroska v1.4.9
Cover : Yes
Attachments : cover.jpg
Video
ID : 1
Format : AVC
Format/Info : Advanced Video Codec
Format profile : [email protected]
Format settings : CABAC / 5 Ref Frames
Format settings, CABAC : Yes
Format settings, ReFrames : 5 frames
Codec ID : V_MPEG4/ISO/AVC
Duration : 1 h 34 min
Bit rate : 4 574 kb/s
Width : 1 920 pixels
Height : 804 pixels
Display aspect ratio : 2.40:1
Frame rate mode : Constant
Frame rate : 24.000 FPS
Original frame rate : 48.000 FPS
Color space : YUV
Chroma subsampling : 4:2:0
Bit depth : 8 bits
Scan type : Progressive
Bits/(Pixel*Frame) : 0.123
Stream size : 3.01 GiB (92%)
Title : Kak_ya_stal_russkim
Language : English
Default : Yes
Forced : No
Color range : Limited
Color primaries : BT.709
Transfer characteristics : BT.709
Matrix coefficients : BT.709
Audio
ID : 2
Format : AC-3
Format/Info : Audio Coding 3
Commercial name : Dolby Digital
Codec ID : A_AC3
Duration : 1 h 34 min
Bit rate mode : Constant
Bit rate : 384 kb/s
Channel(s) : 6 channels
Channel layout : L R C LFE Ls Rs
Sampling rate : 48.0 kHz
Frame rate : 31.250 FPS (1536 SPF)
Bit depth : 16 bits
Compression mode : Lossy
Stream size : 259 MiB (8%)
Language : Russian
Service kind : Complete Main
Default : Yes
Forced : No
Download / Скачать

Хотите скачать бесплатно? Зарегистрируйтесь на сайте (ссылка на регистрацию). Pirat.ca - самый быстрый торрент трекер в рунете!

Как скачивать  ·   Что такое торрент  ·   Рейтинг и ограничения

TinivoyZZ

Боцман

Пост 08-Мар-2019 13:13 (спустя 3 часа)

[Q] 

Спасибо!!! Супер!
[Профиль]  [ЛС] 

peugeot

Морской Волк

Пост 08-Мар-2019 17:00 (спустя 3 часа)

[Q] 

Я понимаю что не туда пишу,но думаю меня поймут подскажите фильм полицейский с рублевки новогодний беспредел будет в качестве? А то в кино не попал.
[Профиль]  [ЛС] 

moscowpan

Гроза морей

4865

Пост 08-Мар-2019 20:47 (спустя 3 часа)

[Q] 

837733Я понимаю что не туда пишу,но думаю меня поймут подскажите фильм полицейский с рублевки новогодний беспредел будет в качестве? А то в кино не попал.
будет, надо подождать

_________________
[Профиль]  [ЛС] 

Kmscom

Морской Волк

Пост 08-Мар-2019 22:19 (спустя 1 час 31 минута)

[Q] 

Трешъ какой-то..
Дочь йебется направо-налево, папа дебил, мама с садовником налево ходит...
и шутят как американцы.. :(
Такими Акаки с Сяхуем показывают руских.
Видимо у них самих все так плохо?
[Профиль]  [ЛС] 

Сумрак

1733

Пост 09-Мар-2019 13:34 (спустя 15 часов)

[Q] 

да есть... ребятам скину ссыль от куда взять ..скинут я сорине могу раздавать у меня сервер и статический ай пи меня блочат сразу.. а с настройкам я не буду заниматься нет времени и сервер не хочу трогать
Добавлено спустя 45 секунд:
837740Трешъ какой-то..
Дочь йебется направо-налево, папа дебил, мама с садовником налево ходит...
и шутят как американцы.. :(
Такими Акаки с Сяхуем показывают руских.
Видимо у них самих все так плохо?
готовят морально китайцам сдаваться ))) и так скоро всех ассимилируют все спиваются

_________________
http://afire-space.com - AFIRE3D проект полная переделка 2moons вход только по invite команды тестеров , или моему личному приглашению промо-старого теста https://yadi.sk/i/qpg7LH1k53Z5MQ.. отличное сочетание крафта и woa(xterium наш партнер https://ru.xterium.com)
[Профиль]  [ЛС] 

moscowpan

Гроза морей

4865

Пост 09-Мар-2019 22:08 (спустя 8 часов)

[Q] 

нормально, обычные испытания папаши

_________________
[Профиль]  [ЛС] 

MurMurChek

Лоцман

Пост 12-Мар-2019 10:55 (спустя 2 дня 12 часов)

[Q] 

что-то смешного мало я нашел в этой комедии. Китайский режиссер явно поржал над нашими соотечественниками)))
[Профиль]  [ЛС] 
Показать сообщения:    
Ответить на тему

Текущее время: Сегодня 22:51

Часовой пояс: GMT + 4



Вы не можете начинать темы
Вы не можете отвечать на сообщения
Вы не можете редактировать свои сообщения
Вы не можете удалять свои сообщения
Вы не можете голосовать в опросах
Вы не можете прикреплять файлы к сообщениям
Вы не можете скачивать файлы

Майнать ▼