Фаворитка / The Favourite (Йоргос Лантимос / Yorgos Lanthimos) [2018 г., драма, комедия, биография, история, BDRip-AVC] Dub [iTunes] + MVO [HDRezka] + Sub (Rus) + Original (Eng)

Ответить на тему
 
Автор
Сообщение

Пост 08-Мар-2019 20:37

[Q] 

moscowpan

Гроза морей

-Фаворитка / The Favourite-- Производство: Ирландия, Великобритания, США Element Pictures, Scarlet Films, Film4
Год выпуска: 2018 г.
Жанр: драма, комедия, биография, история
Продолжительность: 01:59:29
Мировая премьера: 30 августа 2018
Российская премьера: 31 января 2019, «Двадцатый Век Фокс СНГ»
Перевод: Профессиональный (полное дублирование) [iTunes]
Перевод 2: Любительский(многоголосый, закадровый) [HDRezka Studio]
Оригинальный аудиопоток: английский
Режиссёр: Йоргос Лантимос / Yorgos Lanthimos-В ролях: Оливия Колман, Рэйчел Вайз, Эмма Делвс, Фэй Дейвней, Эмма Стоун, Пол Суэйн, Дженнифер Уайт, Лилироуз Стивенс, Денис Мак, Джеймс Смит-Описание: Начало XVIII века. Идет война Англии с Францией. Тем не менее, жизнь в королевстве продолжается. Трон занимает болезненная королева Анна, а руководство страной берет на себя ее близкая подруга леди Сара. Когда при дворе появляется новая служанка Эбигейл, Сара попадает под ее очарование и берет девушку под свое крыло. Для Эбигейл это - шанс вернуться к своим аристократическим корням. Как только Сара устает решать вопросы войны и мира, Эбигейл становится лучшим помощником королевы в этих делах. Крепнущая дружба с Анной дает новой фаворитке возможность реализовать свои амбиции. И лучше не вставать у нее на пути!-
Качество видео: BDRip-AVC
Контейнер: MKV
Видео кодек: MPEG4 AVC
Аудио кодек: AC3
Видео: 1024x554 (1.85:1), 23,976 fps, x264 ~1 985 kbps avg, 0.145 bit/pixel
Аудио: 48 kHz, AC3 Dolby Digital, 3/2 (L,C,R,l,r) + LFE ch, ~384.00 kbps avg | RUS (iTunes)
Аудио #2: 48 kHz, AC3 Dolby Digital, 2 (L,R) ch, ~192.00 kbps avg | RUS (HDRezka Studio)
Аудио #3: 48 kHz, AC3 Dolby Digital, 3/2 (L,C,R,l,r) + LFE ch, ~448.00 kbps avg | ENG
Cубтитры: русские
Доп. информация о субтитрах: Русские (форс., полные), Английские (полные, SDH)
Оскар, 2019 год
Победитель (1):
Лучшая женская роль ( Оливия Колман )
Номинации (9):
Лучший фильм
Лучшая женская роль второго плана (Рэйчел Вайс)
Лучшая женская роль второго плана (Эмма Стоун)
Лучший режиссер (Йоргос Лантимос)
Лучший сценарий
Лучшая работа оператора
Лучшие костюмы
Лучший монтаж
Лучшая работа художника-постановщика
Золотой глобус, 2019 год
Победитель (1):
Лучшая женская роль (комедия или мюзикл) ( Оливия Колман )
Номинации (4):
Лучший фильм (комедия или мюзикл)
Лучшая женская роль второго плана (Рэйчел Вайс)
Лучшая женская роль второго плана (Эмма Стоун)
Лучший сценарий
Британская академия, 2019 год
Победитель (7):
Лучшая женская роль ( Оливия Колман )
Лучшая женская роль второго плана ( Рэйчел Вайс )
Лучший оригинальный сценарий
Лучшие костюмы
Лучший британский фильм
Лучшая работа художника-постановщика ( Элис Фелтон , Фиона Кромби )
Лучший грим/прически
Номинации (5):
Лучший фильм
Лучшая женская роль второго плана (Эмма Стоун)
Лучшая работа оператора (Робби Райан)
Лучший монтаж
Премия имени Дэвида Лина за достижения в режиссуре (Йоргос Лантимос)
Премия Гильдии актеров, 2019 год
Номинации (3):
Лучшая женская роль (Оливия Колман)
Лучшая женская роль второго плана (Эмма Стоун)
Лучшая женская роль второго плана (Рэйчел Вайс)
Венецианский кинофестиваль, 2018 год
Победитель (2):
Особый приз жюри
Кубок Вольпи за лучшую женскую роль ( Оливия Колман )
Номинации (2):
Золотой лев
Голубой лев
Общее
Уникальный идентификатор : 179954477762666670601219780896260985530 (0x8761F8C39F76D0528E5A299CD49192BA)
Полное имя : F:OlLanDGroupThe.Favourite.2018.BDRip(AVC).OlLanDGroup.mkv
Формат : Matroska
Версия формата : Version 4 / Version 2
Размер файла : 2,50 Гбайт
Продолжительность : 1 ч. 59 м.
Общий поток : 2995 Кбит/сек
Название фильма : The Favourite (2018) #TorpedoUK#
Дата кодирования : UTC 2019-03-07 01:09:10
Программа кодирования : mkvmerge v29.0.0 ('Like It Or Not') 64-bit
Библиотека кодирования : libebml v1.3.6 + libmatroska v1.4.9
Видео
Идентификатор : 1
Формат : AVC
Формат/Информация : Advanced Video Codec
Профиль формата : [email protected]
Параметр CABAC формата : Да
Параметр ReFrames формата : 10 кадров
Идентификатор кодека : V_MPEG4/ISO/AVC
Продолжительность : 1 ч. 59 м.
Битрейт : 1967 Кбит/сек
Ширина : 1024 пикселя
Высота : 554 пикселя
Соотношение сторон : 1,85:1
Режим частоты кадров : Постоянный
Частота кадров : 23,976 (24000/1001) кадра/сек
Цветовое пространство : YUV
Субдискретизация насыщенности : 4:2:0
Битовая глубина : 8 бит
Тип развёртки : Прогрессивная
Бит/(Пиксели*Кадры) : 0.145
Размер потока : 1,64 Гбайт (66%)
Библиотека кодирования : x264 core 146 r2538 121396c
Настройки программы : cabac=1 / ref=10 / deblock=1:-3:-3 / analyse=0x3:0x113 / me=umh / subme=11 / psy=1 / psy_rd=0.99:0.04 / mixed_ref=1 / me_range=48 / chroma_me=1 / trellis=2 / 8x8dct=1 / cqm=0 / deadzone=21,11 / fast_pskip=1 / chroma_qp_offset=-3 / threads=6 / lookahead_threads=1 / sliced_threads=0 / nr=0 / decimate=1 / interlaced=0 / bluray_compat=0 / constrained_intra=0 / bframes=11 / b_pyramid=2 / b_adapt=2 / b_bias=0 / direct=3 / weightb=1 / open_gop=0 / weightp=2 / keyint=240 / keyint_min=23 / scenecut=40 / intra_refresh=0 / rc_lookahead=40 / rc=2pass / mbtree=0 / bitrate=1967 / ratetol=1.0 / qcomp=0.60 / qpmin=0 / qpmax=69 / qpstep=4 / cplxblur=20.0 / qblur=0.5 / vbv_maxrate=50000 / vbv_bufsize=62500 / nal_hrd=none / filler=0 / ip_ratio=1.40 / pb_ratio=1.30 / aq=1:1.00
Язык : English
Default : Да
Forced : Нет
Аудио #1
Идентификатор : 2
Формат : AC-3
Формат/Информация : Audio Coding 3
Расширение режима : CM (complete main)
Параметр Endianness формата : Big
Идентификатор кодека : A_AC3
Продолжительность : 1 ч. 59 м.
Вид битрейта : Постоянный
Битрейт : 384 Кбит/сек
Каналы : 6 каналов
Расположение каналов : Front: L C R, Side: L R, LFE
Частота : 48,0 КГц
Частота кадров : 31,250 кадров/сек (1536 spf)
Битовая глубина : 16 бит
Метод сжатия : С потерями
Размер потока : 328 Мбайт (13%)
Заголовок : DUB [iTunes]
Язык : Russian
Default : Да
Forced : Нет
Аудио #2
Идентификатор : 3
Формат : AC-3
Формат/Информация : Audio Coding 3
Расширение режима : CM (complete main)
Параметр Endianness формата : Big
Идентификатор кодека : A_AC3
Продолжительность : 1 ч. 59 м.
Вид битрейта : Постоянный
Битрейт : 192 Кбит/сек
Каналы : 2 канала
Расположение каналов : Front: L R
Частота : 48,0 КГц
Частота кадров : 31,250 кадров/сек (1536 spf)
Битовая глубина : 16 бит
Метод сжатия : С потерями
Размер потока : 164 Мбайт (6%)
Заголовок : MVO [HDRezka Studio]
Язык : Russian
Default : Нет
Forced : Нет
Аудио #3
Идентификатор : 4
Формат : AC-3
Формат/Информация : Audio Coding 3
Расширение режима : CM (complete main)
Параметр Endianness формата : Big
Идентификатор кодека : A_AC3
Продолжительность : 1 ч. 59 м.
Вид битрейта : Постоянный
Битрейт : 448 Кбит/сек
Каналы : 6 каналов
Расположение каналов : Front: L C R, Side: L R, LFE
Частота : 48,0 КГц
Частота кадров : 31,250 кадров/сек (1536 spf)
Битовая глубина : 16 бит
Метод сжатия : С потерями
Размер потока : 383 Мбайт (15%)
Заголовок : [Original]
Язык : English
Default : Нет
Forced : Нет
Текст #1
Идентификатор : 5
Формат : UTF-8
Идентификатор кодека : S_TEXT/UTF8
Идентификатор кодека/Информация : UTF-8 Plain Text
Продолжительность : 1 ч. 57 м.
Битрейт : 0 бит/сек
Count of elements : 11
Размер потока : 464 байт (0%)
Заголовок : Forced
Язык : Russian
Default : Да
Forced : Нет
Текст #2
Идентификатор : 6
Формат : UTF-8
Идентификатор кодека : S_TEXT/UTF8
Идентификатор кодека/Информация : UTF-8 Plain Text
Продолжительность : 1 ч. 57 м.
Битрейт : 86 бит/сек
Count of elements : 1316
Размер потока : 75,0 Кбайт (0%)
Заголовок : Full
Язык : Russian
Default : Нет
Forced : Нет
Текст #3
Идентификатор : 7
Формат : UTF-8
Идентификатор кодека : S_TEXT/UTF8
Идентификатор кодека/Информация : UTF-8 Plain Text
Продолжительность : 1 ч. 57 м.
Битрейт : 89 бит/сек
Count of elements : 1319
Размер потока : 76,9 Кбайт (0%)
Заголовок : Full
Язык : Ukrainian
Default : Нет
Forced : Нет
Текст #4
Идентификатор : 8
Формат : UTF-8
Идентификатор кодека : S_TEXT/UTF8
Идентификатор кодека/Информация : UTF-8 Plain Text
Продолжительность : 1 ч. 52 м.
Битрейт : 50 бит/сек
Count of elements : 1343
Размер потока : 42,0 Кбайт (0%)
Заголовок : Full
Язык : English
Default : Нет
Forced : Нет
Текст #5
Идентификатор : 9
Формат : UTF-8
Идентификатор кодека : S_TEXT/UTF8
Идентификатор кодека/Информация : UTF-8 Plain Text
Продолжительность : 1 ч. 58 м.
Битрейт : 57 бит/сек
Count of elements : 1607
Размер потока : 49,7 Кбайт (0%)
Заголовок : SDH
Язык : English
Default : Нет
Forced : Нет
Меню
00:00:00.000 : :Глава 01
00:18:36.490 : :Глава 02
00:40:35.474 : :Глава 03
00:46:44.384 : :Глава 04
01:06:23.187 : :Глава 05
01:15:12.216 : :Глава 06
01:28:32.682 : :Глава 07
01:36:55.768 : :Глава 08
Download / Скачать

Хотите скачать бесплатно? Зарегистрируйтесь на сайте (ссылка на регистрацию). Pirat.ca - самый быстрый торрент трекер в рунете!

Как скачивать  ·   Что такое торрент  ·   Рейтинг и ограничения



Последний раз редактировалось: moscowpan (2019-03-09 13:39), всего редактировалось 1 раз
Показать сообщения:    
Ответить на тему

Текущее время: Сегодня 06:50

Часовой пояс: GMT + 4



Вы не можете начинать темы
Вы не можете отвечать на сообщения
Вы не можете редактировать свои сообщения
Вы не можете удалять свои сообщения
Вы не можете голосовать в опросах
Вы не можете прикреплять файлы к сообщениям
Вы не можете скачивать файлы

Майнать ▼