Залечь на дно в Брюгге / In Bruges (Мартин МакДонах / Martin McDonagh) [2007 г., триллер, драма, комедия, криминал, BDRip-AVC] AVO (Немахов, Карповский, Гаврилов) + Subs (Rus, Eng)

Ответить на тему
 
Автор
Сообщение

Пост 11-Мар-2019 23:00

[Q] 

anton966

Залечь на дно в Брюгге / In Bruges- Год выпуска: 2007
Производство: Великобритания, США
Жанр: триллер, драма, комедия, криминал
Продолжительность: 01:46:57
Перевод: Авторский (одноголосый) Немахов, Карповский, Гаврилов
Субтитры: русские, *.srt
Режиссер: Мартин МакДонах / Martin McDonagh
В ролях: Колин Фаррелл / Colin Farrell, Брендан Глисон / Brendan Gleeson, Рэйф Файнс / Ralph Fiennes, Клеманс Поэзи / Clémence Poésy, Элизабет Беррингтон / Elizabeth Berrington, Руди Бломм / Rudy Blomme, Оливье Бонжур / Olivier Bonjour, Марк Донован / Mark Donovan, Энн Элсли / Ann Elsley, Жан-Марк Фаворин / Jean-Marc Favorin, Эрик Годон / Eric Godon, Джордан Прентис / Jordan Prentice, Жереми Ренье / Jérémie Renier, Анна Маделей / Anna Madeley
Описание: После того, как наемные убийцы Рэй и Кен запороли в Лондоне важное задание, их злобный шеф Гарри приказывает им отправиться в Брюгге и не высовываться. Оказавшись в старинном бельгийском городке, Рэй от нечего делать флиртует с местной красоткой, пока Кен наслаждается жизнью и неожиданным отпуском. Кажется, ничто не предвещает беду в спокойном городе…

Качество видео: BDRip-AVC
Контейнер: MKV
Видео кодек: MPEG-4 AVC / x.264
Видео: 1104x468 / 4364 kbps / 24,000 fps / 2,35:1 / High Profile 4.1
Аудио #1: 48 kHz, AC3 Dolby Digital, 3/2 (L,C,R,l,r) + LFE ch, ~448 kbps avg - Немахов
Аудио #2: 48 kHz, AC3 Dolby Digital, 3/2 (L,C,R,l,r) + LFE ch, ~448 kbps avg - Карповский
Аудио #3: 48 kHz, AC3 Dolby Digital, 3/2 (L,C,R,l,r) + LFE ch, ~448 kbps avg - Гаврилов
  • За перевод А. Гаврилова большое спасибо пользователям форума hdtracker.org: Xerman13, KpucTo161, spacenoise, MeGUI, SavineX, foxlight, dunhill200, lexal, Chistobaev, Rolly Tyler, kinobbk, Vimann, audiolubite, ElenaS76, chef&chef, karantin66, Brown15, LAVR, hulahup, _MyxAmoP_, -Джосс-, therox, rydanes, Pain_70, nimph, GaryH, maximus1099, Guyver, feldeger, carter64 .
    Отдельное спасибо Xerman13 и foxlight!;
  • За перевод А. Карповского спасибо pirat.ca и пользователям: Kampfer161, zetrob, maximus10-99, ZeDOK, Guyver, Wolf_Larsen, pestel, zeleniydzhan, Slimka, feldeger, SavineX, fly32 .
Формат : Matroska
Версия формата : Version 4
Размер файла : 4,27 Гбайт
Продолжительность : 1 ч. 46 м.
Общий поток : 5712 Кбит/сек
Название фильма : In Bruges.2007.BDRip-AVC.Nemahov.Karpovskiy.Gavrilov.Subs -=anton966=-
Дата кодирования : UTC 2019-03-11 15:52:54
Программа кодирования : mkvmerge v8.3.0 ('Over the Horizon') 64bit
Библиотека кодирования : libebml v1.3.1 + libmatroska v1.4.2
Видео
Идентификатор : 1
Формат : AVC
Формат/Информация : Advanced Video Codec
Профиль формата : [email protected]
Настройки формата : CABAC / 11 Ref Frames
Параметр CABAC формата : Да
Параметр RefFrames формата : 11 кадров
Идентификатор кодека : V_MPEG4/ISO/AVC
Продолжительность : 1 ч. 46 м.
Битрейт : 4365 Кбит/сек
Ширина : 1104 пикселя
Высота : 468 пикселей
Соотношение сторон : 2,35:1
Режим частоты кадров : Постоянный
Частота кадров : 24,000 кадра/сек
Цветовое пространство : YUV
Субдискретизация насыщенности : 4:2:0
Битовая глубина : 8 бит
Тип развёртки : Прогрессивная
Бит/(Пиксели*Кадры) : 0.352
Размер потока : 3,26 Гбайт (76%)
Заголовок : In Bruges.2007.BDRip-AVC
Библиотека кодирования : x264 core 157 r2867+103 0d6443f t_mod_Custom_2 [[email protected] X86]
Настройки программы : cabac=1 / ref=11 / deblock=1:-3:-3 / analyse=0x3:0x113 / me=umh / subme=10 / psy=1 / fade_compensate=0.00 / psy_rd=1.02:0.08 / mixed_ref=1 / me_range=24 / chroma_me=1 / trellis=2 / 8x8dct=1 / cqm=0 / deadzone=21,11 / fast_pskip=0 / chroma_qp_offset=-3 / threads=6 / lookahead_threads=6 / sliced_threads=0 / nr=0 / decimate=1 / interlaced=0 / bluray_compat=0 / constrained_intra=0 / fgo=0 / bframes=10 / b_pyramid=2 / b_adapt=2 / b_bias=0 / direct=1 / weightb=1 / open_gop=0 / weightp=2 / keyint=250 / keyint_min=24 / scenecut=40 / intra_refresh=0 / rc_lookahead=60 / rc=crf / mbtree=0 / crf=18.4000 / qcomp=0.60 / qpmin=0:0:0 / qpmax=69:69:69 / qpstep=4 / vbv_maxrate=40000 / vbv_bufsize=62500 / crf_max=0.0 / nal_hrd=none / filler=0 / ip_ratio=1.32 / pb_ratio=1.22 / aq=3:0.80 / aq-sensitivity=10.00 / aq-factor=1.00:1.00:1.00 / aq2=0 / aq3=0
Язык : English
Default : Да
Forced : Нет
Цветовой диапазон : Limited
Основные цвета : BT.709
Характеристики трансфера : BT.709
Коэффициенты матрицы : BT.709
Аудио #1
Идентификатор : 2
Формат : AC-3
Формат/Информация : Audio Coding 3
Коммерческое название : Dolby Digital
Идентификатор кодека : A_AC3
Продолжительность : 1 ч. 46 м.
Вид битрейта : Постоянный
Битрейт : 448 Кбит/сек
Каналы : 6 каналов
Channel layout : L R C LFE Ls Rs
Частота : 48,0 КГц
Частота кадров : 31,250 кадров/сек (1536 SPF)
Битовая глубина : 16 бит
Метод сжатия : С потерями
Размер потока : 343 Мбайт (8%)
Заголовок : Nemahov
Язык : Russian
ServiceKind/String : Complete Main
Default : Да
Forced : Нет
Аудио #2
Идентификатор : 3
Формат : AC-3
Формат/Информация : Audio Coding 3
Коммерческое название : Dolby Digital
Идентификатор кодека : A_AC3
Продолжительность : 1 ч. 46 м.
Вид битрейта : Постоянный
Битрейт : 448 Кбит/сек
Каналы : 6 каналов
Channel layout : L R C LFE Ls Rs
Частота : 48,0 КГц
Частота кадров : 31,250 кадров/сек (1536 SPF)
Битовая глубина : 16 бит
Метод сжатия : С потерями
Размер потока : 343 Мбайт (8%)
Заголовок : Karpovskiy
Язык : Russian
ServiceKind/String : Complete Main
Default : Нет
Forced : Нет
Аудио #3
Идентификатор : 4
Формат : AC-3
Формат/Информация : Audio Coding 3
Коммерческое название : Dolby Digital
Идентификатор кодека : A_AC3
Продолжительность : 1 ч. 46 м.
Вид битрейта : Постоянный
Битрейт : 448 Кбит/сек
Каналы : 6 каналов
Channel layout : L R C LFE Ls Rs
Частота : 48,0 КГц
Частота кадров : 31,250 кадров/сек (1536 SPF)
Битовая глубина : 16 бит
Метод сжатия : С потерями
Размер потока : 343 Мбайт (8%)
Заголовок : Gavrilov
Язык : Russian
ServiceKind/String : Complete Main
Default : Нет
Forced : Нет
Текст #1
Идентификатор : 5
Формат : UTF-8
Идентификатор кодека : S_TEXT/UTF8
Идентификатор кодека/Информация : UTF-8 Plain Text
Продолжительность : 1 ч. 40 м.
Битрейт : 82 бит/сек
ElementCount : 1163
Размер потока : 60,2 Кбайт (0%)
Заголовок : Calavera
Язык : Russian
Default : Нет
Forced : Нет
Текст #2
Идентификатор : 6
Формат : UTF-8
Идентификатор кодека : S_TEXT/UTF8
Идентификатор кодека/Информация : UTF-8 Plain Text
Продолжительность : 1 ч. 42 м.
Битрейт : 100 бит/сек
ElementCount : 1175
Размер потока : 75,4 Кбайт (0%)
Заголовок : Corvin
Язык : Russian
Default : Нет
Forced : Нет
Текст #3
Идентификатор : 7
Формат : UTF-8
Идентификатор кодека : S_TEXT/UTF8
Идентификатор кодека/Информация : UTF-8 Plain Text
Продолжительность : 1 ч. 40 м.
Битрейт : 98 бит/сек
ElementCount : 1167
Размер потока : 72,1 Кбайт (0%)
Заголовок : hosco
Язык : Russian
Default : Нет
Forced : Нет
Текст #4
Идентификатор : 8
Формат : UTF-8
Идентификатор кодека : S_TEXT/UTF8
Идентификатор кодека/Информация : UTF-8 Plain Text
Продолжительность : 1 ч. 40 м.
Битрейт : 91 бит/сек
ElementCount : 1173
Размер потока : 67,0 Кбайт (0%)
Заголовок : Motygin
Язык : Russian
Default : Нет
Forced : Нет
Текст #5
Идентификатор : 9
Формат : UTF-8
Идентификатор кодека : S_TEXT/UTF8
Идентификатор кодека/Информация : UTF-8 Plain Text
Продолжительность : 1 ч. 40 м.
Битрейт : 87 бит/сек
ElementCount : 1176
Размер потока : 64,5 Кбайт (0%)
Заголовок : Pahutkin
Язык : Russian
Default : Нет
Forced : Нет
Текст #6
Идентификатор : 10
Формат : UTF-8
Идентификатор кодека : S_TEXT/UTF8
Идентификатор кодека/Информация : UTF-8 Plain Text
Продолжительность : 1 ч. 40 м.
Битрейт : 94 бит/сек
ElementCount : 1065
Размер потока : 69,3 Кбайт (0%)
Заголовок : Pozdnyakov
Язык : Russian
Default : Нет
Forced : Нет
Текст #7
Идентификатор : 11
Формат : UTF-8
Идентификатор кодека : S_TEXT/UTF8
Идентификатор кодека/Информация : UTF-8 Plain Text
Продолжительность : 1 ч. 40 м.
Битрейт : 86 бит/сек
ElementCount : 1114
Размер потока : 63,7 Кбайт (0%)
Заголовок : R5 (Paradise)
Язык : Russian
Default : Нет
Forced : Нет
Текст #8
Идентификатор : 12
Формат : UTF-8
Идентификатор кодека : S_TEXT/UTF8
Идентификатор кодека/Информация : UTF-8 Plain Text
Продолжительность : 1 ч. 40 м.
Битрейт : 88 бит/сек
ElementCount : 1169
Размер потока : 64,9 Кбайт (0%)
Заголовок : Renks
Язык : Russian
Default : Нет
Forced : Нет
Текст #9
Идентификатор : 13
Формат : UTF-8
Идентификатор кодека : S_TEXT/UTF8
Идентификатор кодека/Информация : UTF-8 Plain Text
Продолжительность : 1 ч. 40 м.
Битрейт : 90 бит/сек
ElementCount : 1109
Размер потока : 66,1 Кбайт (0%)
Заголовок : sunny-sko
Язык : Russian
Default : Нет
Forced : Нет
Текст #10
Идентификатор : 14
Формат : UTF-8
Идентификатор кодека : S_TEXT/UTF8
Идентификатор кодека/Информация : UTF-8 Plain Text
Продолжительность : 1 ч. 40 м.
Битрейт : 58 бит/сек
ElementCount : 1170
Размер потока : 43,0 Кбайт (0%)
Язык : English
Default : Нет
Forced : Нет
Текст #11
Идентификатор : 15
Формат : UTF-8
Идентификатор кодека : S_TEXT/UTF8
Идентификатор кодека/Информация : UTF-8 Plain Text
Продолжительность : 1 ч. 40 м.
Битрейт : 59 бит/сек
ElementCount : 1224
Размер потока : 43,9 Кбайт (0%)
Заголовок : SDH
Язык : English
Default : Нет
Forced : Нет
Меню
00:00:00.000 : en:Medieval Town
00:04:48.875 : en:Terrible Tourist
00:10:10.041 : en:Seeing the Sights
00:15:29.790 : en:Message Received
00:20:28.998 : en:Holy Blood
00:25:27.248 : en:Purgatory
00:30:42.580 : en:My Hometown
00:36:55.788 : en:Like a Fairy Tale
00:43:28.329 : en:Someone Nice
00:46:59.954 : en:Drowning Sorrows
00:50:43.203 : en:Choose a Side
00:54:29.995 : en:Suicidal
01:00:27.578 : en:Keep on Moving
01:07:21.660 : en:Back to Bruges
01:12:32.243 : en:Capacity to Change
01:17:49.076 : en:In Your Debt
01:23:56.534 : en:Last Chance
01:29:19.825 : en:Will to Live
01:36:45.657 : en:Principles
01:41:17.990 : en:End Titles
avs [info]: 1104x468p 1:1 @ 24/1 fps (cfr)
avs [info]: color matrix: bt709
x264 [info]: using SAR=1/1
x264 [info]: using cpu capabilities: MMX2 SSE2Fast SSSE3 SSE4.2 AVX XOP FMA3 BMI1
x264 [info]: profile High, level 4.1, 4:2:0, 8-bit
x264 [info]: cabac=1 ref=11 deblock=1:-3:-3 analyse=0x3:0x113 me=umh subme=10 psy=1 fade_compensate=0.00 psy_rd=1.02:0.08 mixed_ref=1 me_range=24 chroma_me=1 trellis=2 8x8dct=1 cqm=0 deadzone=21,11 fast_pskip=0 chroma_qp_offset=-3 threads=6 lookahead_threads=6 sliced_threads=0 nr=0 decimate=1 interlaced=0 bluray_compat=0 constrained_intra=0 fgo=0 bframes=10 b_pyramid=2 b_adapt=2 b_bias=0 direct=1 weightb=1 open_gop=0 weightp=2 keyint=250 keyint_min=24 scenecut=40 intra_refresh=0 rc_lookahead=60 rc=crf mbtree=0 crf=18.4000 qcomp=0.60 qpmin=0:0:0 qpmax=69:69:69 qpstep=4 vbv_maxrate=40000 vbv_bufsize=62500 crf_max=0.0 nal_hrd=none filler=0 ip_ratio=1.32 pb_ratio=1.22 aq=3:0.80 aq-sensitivity=10.00 aq-factor=1.00:1.00:1.00 aq2=0 aq3=0
x264 [info]: started at Tue Feb 26 17:37:35 2019
x264 [info]: frame I:1113 Avg QP:16.27 size: 77803
x264 [info]: frame P:30445 Avg QP:18.07 size: 38843
x264 [info]: frame B:122443 Avg QP:19.37 size: 18226
x264 [info]: consecutive B-frames: 1.8% 2.4% 5.9% 10.4% 14.2% 47.8% 7.0% 1.7% 3.0% 3.0% 2.8%
x264 [info]: mb I I16..4: 12.8% 74.2% 13.1%
x264 [info]: mb P I16..4: 0.4% 18.6% 2.3% P16..4: 29.6% 28.1% 15.3% 0.0% 0.0% skip: 5.6%
x264 [info]: mb B I16..4: 0.0% 2.9% 0.4% B16..8: 42.5% 16.1% 5.5% direct: 8.5% skip:24.1% L0:47.0% L1:42.1% BI:10.9%
x264 [info]: 8x8 transform intra:86.5% inter:57.6%
x264 [info]: coded y,uvDC,uvAC intra: 94.1% 75.2% 54.7% inter: 45.4% 23.4% 4.5%
x264 [info]: i16 v,h,dc,p: 31% 5% 27% 37%
x264 [info]: i8 v,h,dc,ddl,ddr,vr,hd,vl,hu: 10% 7% 16% 9% 12% 11% 11% 11% 12%
x264 [info]: i4 v,h,dc,ddl,ddr,vr,hd,vl,hu: 50% 4% 6% 6% 8% 8% 7% 6% 6%
x264 [info]: i8c dc,h,v,p: 47% 21% 18% 14%
x264 [info]: Weighted P-Frames: Y:3.2% UV:1.7%
x264 [info]: ref P L0: 41.9% 10.9% 17.7% 6.9% 6.2% 4.2% 4.1% 2.2% 2.2% 1.7% 1.9% 0.1% 0.0%
x264 [info]: ref B L0: 63.0% 13.8% 7.9% 4.4% 3.3% 2.7% 2.2% 1.5% 0.9% 0.3%
x264 [info]: ref B L1: 92.2% 7.8%
x264 [info]: kb/s:4364.63
Download / Скачать

Хотите скачать бесплатно? Зарегистрируйтесь на сайте (ссылка на регистрацию). Pirat.ca - самый быстрый торрент трекер в рунете!

Как скачивать  ·   Что такое торрент  ·   Рейтинг и ограничения

Antarres

Легенда

Пост Сегодня 13:53 (спустя 7 дней)

[Q] 

Без озвучки Пучкова - бессмысленно выкладывать

_________________
[Профиль]  [ЛС] 

Voldun

Корсар

370

Пост Сегодня 21:44 (спустя 7 часов)

[Q] 

838003Без озвучки Пучкова - бессмысленно выкладывать
А банан тебе не выдать?
[Профиль]  [ЛС] 
Показать сообщения:    
Ответить на тему

Текущее время: Сегодня 22:54

Часовой пояс: GMT + 4



Вы не можете начинать темы
Вы не можете отвечать на сообщения
Вы не можете редактировать свои сообщения
Вы не можете удалять свои сообщения
Вы не можете голосовать в опросах
Вы не можете прикреплять файлы к сообщениям
Вы не можете скачивать файлы

Майнать ▼