Семь ужинов (Кирилл Плетнев) [2019 г., комедия, WEB-DL, 1080p]

Ответить на тему
 
Автор
Сообщение

Пост 15-Мар-2019 19:38

[Q] 

moscowpan

Гроза морей

-Семь ужинов-«Поесть спокойно не получится»- Производство: Renovatio ent.
Режиссёр: Кирилл Плетнев
Жанр: комедия
Год выпуска: 2019 г.
Продолжительность: 01:29:44
Российская премьера: 14 февраля 2019
В ролях: Роман Курцын, Полина Максимова, Елена Яковлева, Владимир Ильин, Петар Зекавица, Анастасия Уколова, Вера Гурьева, Александр Лыков-Описание: После пяти лет совместной жизни отношения супругов разваливаются: детей нет, любовь остыла, общих интересов практически не осталось. Когда жена просит развод, главный герой вдруг осознает, что не готов отпустить близкого человека и уговаривает жену протестировать будто бы разработанную им научную методику восстановления отношений.
Называется она «Семь ужинов». И если после участия в этом эксперименте девушка не изменит решение, он даст ей развод. Все просто — они должны будут поужинать семь раз. Но выясняется, что каждый раз будут новые вводные — ужин в темноте, ужин без одежды, ужин в присутствии постороннего человека… Жена, уверенная в том, что это лишь наивный повод оттянуть расставание, снисходительно соглашается.-Качество видео: WEB-DL
Контейнер: MKV
Стандарт разрешения: 1080p
Видео кодек: MPEG4 AVC
Аудио кодек: AC3
Видео: 1920x804 at 24.000 fps, MPEG-4 AVC, ~4579 kbps avg
Аудио: 48 kHz, AC3, 3/2 (L,C,R,l,r) + LFE ch, ~384.00 kbps avg
Cубтитры: отсутствуют
General
Unique ID : 241429929877522863968418572975593611331 (0xB5A1B6907D73E16397E191571455E043)
Complete name : Семь Ужинов.2019.mkv
Format : Matroska
Format version : Version 2
File size : 3.11 GiB
Duration : 1 h 29 min
Overall bit rate : 4 965 kb/s
Encoded date : UTC 2019-03-14 08:42:26
Writing application : mkvmerge v7.8.0 ('River Man') 32bit built on Mar 27 2015 16:18:02
Writing library : libebml v1.3.1 + libmatroska v1.4.2
Video
ID : 1
Format : AVC
Format/Info : Advanced Video Codec
Format profile : [email protected]
Format settings : CABAC / 5 Ref Frames
Format settings, CABAC : Yes
Format settings, ReFrames : 5 frames
Codec ID : V_MPEG4/ISO/AVC
Duration : 1 h 29 min
Bit rate : 4 482 kb/s
Width : 1 920 pixels
Height : 804 pixels
Display aspect ratio : 2.40:1
Frame rate mode : Constant
Frame rate : 24.000 FPS
Color space : YUV
Chroma subsampling : 4:2:0
Bit depth : 8 bits
Scan type : Progressive
Bits/(Pixel*Frame) : 0.121
Stream size : 2.81 GiB (90%)
Title : Семь ужинов 2019
Language : Russian
Default : Yes
Forced : No
Color range : Limited
Color primaries : BT.709
Transfer characteristics : BT.709
Matrix coefficients : BT.709
Audio
ID : 2
Format : AC-3
Format/Info : Audio Coding 3
Codec ID : A_AC3
Duration : 1 h 29 min
Bit rate mode : Constant
Bit rate : 384 kb/s
Channel(s) : 6 channels
Channel positions : Front: L C R, Side: L R, LFE
Sampling rate : 48.0 kHz
Frame rate : 31.250 FPS (1536 SPF)
Bit depth : 16 bits
Compression mode : Lossy
Stream size : 247 MiB (8%)
Language : Russian
Service kind : Complete Main
Default : Yes
Forced : No
Download / Скачать

Хотите скачать бесплатно? Зарегистрируйтесь на сайте (ссылка на регистрацию). Pirat.ca - самый быстрый торрент трекер в рунете!

Как скачивать  ·   Что такое торрент  ·   Рейтинг и ограничения

TinivoyZZ

Лоцман

Пост 16-Мар-2019 06:13 (спустя 10 часов)

[Q] 

Автору респект!!! Лови бочку
[Профиль]  [ЛС] 

moscowpan ®

Гроза морей

4926

Пост 16-Мар-2019 13:53 (спустя 7 часов)

[Q] 

837914 Автору респект!!!
Спасибо за Спасибо

_________________
[Профиль]  [ЛС] 

SashaSofer

Шкипер

Пост 16-Мар-2019 19:01 (спустя 5 часов)

[Q] 

за раздачу спасибо
[Профиль]  [ЛС] 

koljan-2008

Гроза морей

10

Пост 17-Мар-2019 16:04 (спустя 21 час)

[Q] 

Посмотрим, что за фильмец. Раздающему респект! Лови бочку

_________________
Нужно лишь верить в мечту. Искренне верить! И тогда всё получится!
[Профиль]  [ЛС] 
Показать сообщения:    
Ответить на тему

Текущее время: Сегодня 12:45

Часовой пояс: GMT + 4



Вы не можете начинать темы
Вы не можете отвечать на сообщения
Вы не можете редактировать свои сообщения
Вы не можете удалять свои сообщения
Вы не можете голосовать в опросах
Вы не можете прикреплять файлы к сообщениям
Вы не можете скачивать файлы

Майнать ▼