Кадавр / The Posseassion of Hannah Grace (Дидерик Ван Ружен / Diederik Van Rooijen) [2018 г., ужасы, триллер, детектив, BDRip, 1080p] Dub Sub (Eng)

Ответить на тему
 
Автор
Сообщение

Пост 11-Апр-2019 11:04

[Q] 

tank69

Гроза морей

-Кадавр / The Posseassion of Hannah Grace-- Производство: США, Broken Road Productions, Screen Gems
Год выпуска: 2018 г.
Жанр: ужасы, триллер, детектив
Продолжительность: 01:25:45
Мировая премьера: 28 февраля 2019
Перевод: Профессиональный (полное дублирование)
Режиссёр: Дидерик Ван Ружен / Diederik Van Rooijen-В ролях: Шэй Митчелл, Грэй Дэймон, Кирби Джонсон, Ник Тун, Луис Хертэм, Стана Катик, Максимиллиан МакНамара, Джейкоб Минг-Трент, Джеймс А. Уотсон мл., Марианн Байяр.-Описание: Меган Рид, недавно вышедшая из рехаба, проводит ночную смену в городском морге. Туда привозят тело женщины, умершей во время обряда экзорцизма, и Меган начинает казаться, что злая сущность никуда не делась и теперь начинает за ней охотиться.-

Качество видео: BDRip
Контейнер: MKV
Стандарт разрешения: 1080p
Видео кодек: MPEG4 AVC
Аудио кодек: AC3
Видео: AVC, 1920x804, 23.976 fps, 9067 Kbps
Аудио: Rus: AC-3, 48.0 KHz, 6 ch, 448 Kbps
Аудио: Rus: AC-3, 48.0 KHz, 6 ch, 1509 Kbps
Аудио: Eng: DTS, 48.0 KHz, 2 ch, 192 Kbps
Cубтитры: английские
Доп. информация о субтитрах: UTF-8
бщее
Уникальный идентификатор : 77434884061371828958281981744270260182 (0x3A416A8BC80A3A9ABDD5D3BC1517B7D6)
Полное имя : C:\Users\38067\Downloads\The.Possession.of.Hannah.Grace.2018.x264.BDRip.(1080p).OlLanDGroup.mkv
Формат : Matroska
Версия формата : Version 4
Размер файла : 6,72 Гбайт
Продолжительность : 1 ч. 25 м.
Общий поток : 11,2 Мбит/сек
Название фильма : Кадавр.2018.Rip by: ollan
Дата кодирования : UTC 2019-04-11 05:09:30
Программа кодирования : mkvmerge v29.0.0 ('Like It Or Not') 64-bit
Библиотека кодирования : libebml v1.3.6 + libmatroska v1.4.9
Обложка : Yes
Attachments : Cover - The.Possession.Of.Hannah.Grace.png
Видео
Идентификатор : 1
Формат : AVC
Формат/Информация : Advanced Video Codec
Профиль формата : [email protected]
Настройки формата : CABAC / 5 Ref Frames
Параметр CABAC формата : Да
Параметр RefFrames формата : 5 кадров
Идентификатор кодека : V_MPEG4/ISO/AVC
Продолжительность : 1 ч. 25 м.
Битрейт : 9067 Кбит/сек
Ширина : 1920 пикселей
Высота : 804 пикселя
Соотношение сторон : 2,40:1
Режим частоты кадров : Постоянный
Частота кадров : 23,976 (24000/1001) кадра/сек
Цветовое пространство : YUV
Субдискретизация насыщенности : 4:2:0
Битовая глубина : 8 бит
Тип развёртки : Прогрессивная
Бит/(Пиксели*Кадры) : 0.245
Размер потока : 5,43 Гбайт (81%)
Библиотека кодирования : x264 core 146 r2538 121396c
Настройки программы : cabac=1 / ref=5 / deblock=1:-2:-3 / analyse=0x3:0x133 / me=umh / subme=11 / psy=1 / psy_rd=0.90:0.05 / mixed_ref=1 / me_range=64 / chroma_me=1 / trellis=2 / 8x8dct=1 / cqm=0 / deadzone=21,11 / fast_pskip=0 / chroma_qp_offset=-3 / threads=12 / lookahead_threads=3 / sliced_threads=0 / nr=0 / decimate=0 / interlaced=0 / bluray_compat=0 / constrained_intra=0 / bframes=10 / b_pyramid=2 / b_adapt=2 / b_bias=0 / direct=3 / weightb=1 / open_gop=0 / weightp=2 / keyint=240 / keyint_min=23 / scenecut=40 / intra_refresh=0 / rc_lookahead=40 / rc=2pass / mbtree=0 / bitrate=9067 / ratetol=1.0 / qcomp=0.60 / qpmin=0 / qpmax=69 / qpstep=4 / cplxblur=20.0 / qblur=0.5 / vbv_maxrate=50000 / vbv_bufsize=62500 / nal_hrd=none / filler=0 / ip_ratio=1.40 / pb_ratio=1.30 / aq=1:1.00
Язык : English
Default : Да
Forced : Нет
Аудио #1
Идентификатор : 2
Формат : AC-3
Формат/Информация : Audio Coding 3
Коммерческое название : Dolby Digital
Идентификатор кодека : A_AC3
Продолжительность : 1 ч. 25 м.
Вид битрейта : Постоянный
Битрейт : 448 Кбит/сек
Каналы : 6 каналов
Channel layout : L R C LFE Ls Rs
Частота : 48,0 КГц
Частота кадров : 31,250 кадров/сек (1536 SPF)
Битовая глубина : 16 бит
Метод сжатия : С потерями
Задержка видео : 32 мс.
Размер потока : 275 Мбайт (4%)
Заголовок : DUB [License]
Язык : Russian
ServiceKind/String : Complete Main
Default : Да
Forced : Нет
Аудио #2
Идентификатор : 3
Формат : AC-3
Формат/Информация : Audio Coding 3
Коммерческое название : Dolby Digital
Идентификатор кодека : A_AC3
Продолжительность : 1 ч. 25 м.
Вид битрейта : Постоянный
Битрейт : 192 Кбит/сек
Каналы : 2 канала
Channel layout : L R
Частота : 48,0 КГц
Частота кадров : 31,250 кадров/сек (1536 SPF)
Битовая глубина : 16 бит
Метод сжатия : С потерями
Размер потока : 118 Мбайт (2%)
Заголовок : HDRezka Studio
Язык : Russian
ServiceKind/String : Complete Main
Default : Нет
Forced : Нет
Аудио #3
Идентификатор : 4
Формат : DTS
Формат/Информация : Digital Theater Systems
Идентификатор кодека : A_DTS
Продолжительность : 1 ч. 25 м.
Вид битрейта : Постоянный
Битрейт : 1509 Кбит/сек
Каналы : 6 каналов
Channel layout : C L R Ls Rs LFE
Частота : 48,0 КГц
Частота кадров : 93,750 кадра/сек (512 SPF)
Битовая глубина : 16 бит
Метод сжатия : С потерями
Размер потока : 925 Мбайт (13%)
Язык : English
Default : Нет
Forced : Нет
Текст
Идентификатор : 5
Формат : UTF-8
Идентификатор кодека : S_TEXT/UTF8
Идентификатор кодека/Информация : UTF-8 Plain Text
Продолжительность : 1 ч. 20 м.
Битрейт : 31 бит/сек
ElementCount : 603
Размер потока : 18,8 Кбайт (0%)
Заголовок : Full
Язык : English
Default : Нет
Forced : Нет
Меню
00:00:00.000 : en:Chapter 01
00:05:30.955 : en:Chapter 02
00:10:07.231 : en:Chapter 03
00:15:24.548 : en:Chapter 04
00:21:30.080 : en:Chapter 05
00:26:07.357 : en:Chapter 06
00:31:27.343 : en:Chapter 07
00:36:12.211 : en:Chapter 08
00:41:44.960 : en:Chapter 09
00:47:07.199 : en:Chapter 10
00:51:57.823 : en:Chapter 11
00:56:37.602 : en:Chapter 12
01:03:44.278 : en:Chapter 13
01:08:01.410 : en:Chapter 14
01:13:25.859 : en:Chapter 15
01:20:45.423 : en:Chapter 16
БЕЗ РЕКЛАМЫ
Download / Скачать

Хотите скачать бесплатно? Зарегистрируйтесь на сайте (ссылка на регистрацию). Pirat.ca - самый быстрый торрент трекер в рунете!

Как скачивать  ·   Что такое торрент  ·   Рейтинг и ограничения



Последний раз редактировалось: tank69 (2019-04-11 11:26), всего редактировалось 2 раз(а)

tank69 ®

Гроза морей

2874

Пост 11-Апр-2019 11:05 (спустя 1 минута)

[Q] 

В норм качестве и без рекламы, на замену - Кадавр / The Posseassion of Hannah Grace (Дидерик Ван Ружен / Diederik Van Rooijen) [2018 г., ужасы, триллер, детектив, WEBRip, 720p] DVO
Приятного просмотра.
[Профиль]  [ЛС] 

borislav18

Штурман

Пост 13-Апр-2019 09:03 (спустя 1 день 21 час)

[Q] 

фильм на раз, нууу с натяжкой можно посмотреть.
[Профиль]  [ЛС] 
Показать сообщения:    
Ответить на тему

Текущее время: Сегодня 21:11

Часовой пояс: GMT + 4



Вы не можете начинать темы
Вы не можете отвечать на сообщения
Вы не можете редактировать свои сообщения
Вы не можете удалять свои сообщения
Вы не можете голосовать в опросах
Вы не можете прикреплять файлы к сообщениям
Вы не можете скачивать файлы

Майнать ▼