Молчание / The Silence (Джон Р. Леонетти / John R. Leonetti) [2019 г., ужасы, WEB-DLRip, 1080p] Dub + Original (Eng) + Sub (Rus, Eng)

Ответить на тему
 
Автор
Сообщение

Пост 11-Апр-2019 16:15

[Q] 

tank69

Гроза морей

-Молчание / The Silence-- Производство: Германия, США, Constantin Film
Год выпуска: 2019 г.
Жанр: ужасы
Продолжительность: 01:30:53
Мировая премьера: 10 апреля 2019
Перевод: Профессиональный (полное дублирование)
Оригинальный аудиопоток: английский
Режиссёр: Джон Р. Леонетти / John R. Leonetti-В ролях: Кирнан Шипка, Стэнли Туччи, Миранда Отто, Джон Корбетт, Сара Эбботт, Кейт Корбетт, Кайл Харрисон, Брейткопф, Демпси Брайк, Билли Маклеллан, Ханна Гордон, Каллум Шоникер, Тейлор Лав, Чезаре Скарпоне.-Описание: Спелеологи вскрыли древнюю пещеру в Молдавии, тем самым выпустив на свободу странных существ, больше всего похожих на летучих мышей. Твари слепы и ориентируются только на звуки, быстро перемещаются на кожистых крыльях и довольно шустро размножаются, поэтому вскоре распространяются по всей планете. И, конечно, они весьма кровожадны.-
Качество видео: WEB-DLRip
Контейнер: MKV
Стандарт разрешения: 1080p
Видео кодек: MPEG4 AVC
Аудио кодек: AC3
Видео: AVC, 1920x1080, 23.976 fps, 4640 Kbps
Аудио: Rus: AC-3, 48.0 KHz, 6 ch, 640 Kbps
Аудио: Eng: AC-3, 48.0 KHz, 6 ch, 640 Kbps
Cубтитры: русские, английские
Доп. информация о субтитрах: UTF-8
Общее
Уникальный идентификатор : 128419143905361769405912045134629800340 (0x609CA0A1BE048F1EA84907713D8F8994)
Полное имя : C:\Users\38067\Downloads\The.Silence.2019.1080p.WEB-DL.DUB.EniaHD.mkv
Формат : Matroska
Версия формата : Version 4
Размер файла : 3,74 Гбайт
Продолжительность : 1 ч. 30 м.
Режим общего битрейта : Переменный
Общий поток : 5893 Кбит/сек
Название фильма : Молчание (2019)
Дата кодирования : UTC 2019-04-10 16:44:07
Программа кодирования : mkvmerge v32.0.0 ('Astral Progressions') 32-bit
Библиотека кодирования : libebml v1.3.7 + libmatroska v1.5.0
Обложка : Yes
Attachments : cover.jpg
Видео
Идентификатор : 1
Формат : AVC
Формат/Информация : Advanced Video Codec
Профиль формата : [email protected]
Настройки формата : CABAC / 3 Ref Frames
Параметр CABAC формата : Да
Параметр RefFrames формата : 3 кадра
Идентификатор кодека : V_MPEG4/ISO/AVC
Продолжительность : 1 ч. 30 м.
Вид битрейта : Переменный
Битрейт : 4640 Кбит/сек
Максимальный битрейт : 6960 Кбит/сек
Ширина : 1920 пикселей
Высота : 1080 пикселей
Соотношение сторон : 16:9
Режим частоты кадров : Постоянный
Частота кадров : 23,976 (24000/1001) кадра/сек
Цветовое пространство : YUV
Субдискретизация насыщенности : 4:2:0
Битовая глубина : 8 бит
Тип развёртки : Прогрессивная
Бит/(Пиксели*Кадры) : 0.093
Размер потока : 2,93 Гбайт (78%)
Заголовок : The.Silence.2019.1080p.WEB-DL.DUB.EniaHD
Библиотека кодирования : x264 core 148 r2715 7e75228
Настройки программы : cabac=1 / ref=3 / deblock=1:0:0 / analyse=0x1:0x111 / me=umh / subme=10 / psy=1 / psy_rd=1.00:0.00 / mixed_ref=1 / me_range=24 / chroma_me=1 / trellis=2 / 8x8dct=0 / cqm=0 / deadzone=21,11 / fast_pskip=1 / chroma_qp_offset=-2 / threads=8 / lookahead_threads=1 / sliced_threads=0 / nr=0 / decimate=1 / interlaced=0 / bluray_compat=0 / stitchable=1 / constrained_intra=0 / bframes=2 / b_pyramid=0 / b_adapt=2 / b_bias=0 / direct=3 / weightb=1 / open_gop=0 / weightp=2 / keyint=48 / keyint_min=25 / scenecut=0 / intra_refresh=0 / rc_lookahead=48 / rc=2pass / mbtree=1 / bitrate=4640 / ratetol=1.0 / qcomp=0.50 / qpmin=6 / qpmax=51 / qpstep=4 / cplxblur=20.0 / qblur=0.5 / vbv_maxrate=6960 / vbv_bufsize=9280 / nal_hrd=vbr / filler=0 / ip_ratio=1.40 / aq=1:1.00
Язык : English
Default : Да
Forced : Нет
Аудио #1
Идентификатор : 2
Формат : E-AC-3
Формат/Информация : Enhanced AC-3
Коммерческое название : Dolby Digital Plus
Идентификатор кодека : A_EAC3
Продолжительность : 1 ч. 30 м.
Вид битрейта : Постоянный
Битрейт : 640 Кбит/сек
Каналы : 6 каналов
Channel layout : L R C LFE Ls Rs
Частота : 48,0 КГц
Частота кадров : 31,250 кадров/сек (1536 SPF)
Метод сжатия : С потерями
Размер потока : 416 Мбайт (11%)
Заголовок : E-AC3 5.1 @ 640 kbps - DUB, SDI Media
Язык : Russian
ServiceKind/String : Complete Main
Default : Да
Forced : Нет
Аудио #2
Идентификатор : 3
Формат : E-AC-3
Формат/Информация : Enhanced AC-3
Коммерческое название : Dolby Digital Plus
Идентификатор кодека : A_EAC3
Продолжительность : 1 ч. 30 м.
Вид битрейта : Постоянный
Битрейт : 640 Кбит/сек
Каналы : 6 каналов
Channel layout : L R C LFE Ls Rs
Частота : 48,0 КГц
Частота кадров : 31,250 кадров/сек (1536 SPF)
Метод сжатия : С потерями
Размер потока : 416 Мбайт (11%)
Заголовок : E-AC3 5.1 @ 640 kbps - Original
Язык : English
ServiceKind/String : Complete Main
Default : Нет
Forced : Нет
Текст #1
Идентификатор : 4
Формат : UTF-8
Идентификатор кодека : S_TEXT/UTF8
Идентификатор кодека/Информация : UTF-8 Plain Text
Продолжительность : 1 ч. 29 м.
Битрейт : 5 бит/сек
ElementCount : 85
Размер потока : 3,62 Кбайт (0%)
Заголовок : Forced
Язык : Russian
Default : Да
Forced : Да
Текст #2
Идентификатор : 5
Формат : UTF-8
Идентификатор кодека : S_TEXT/UTF8
Идентификатор кодека/Информация : UTF-8 Plain Text
Продолжительность : 1 ч. 29 м.
Битрейт : 36 бит/сек
ElementCount : 608
Размер потока : 24,4 Кбайт (0%)
Заголовок : Full
Язык : Russian
Default : Нет
Forced : Нет
Текст #3
Идентификатор : 6
Формат : UTF-8
Идентификатор кодека : S_TEXT/UTF8
Идентификатор кодека/Информация : UTF-8 Plain Text
Продолжительность : 1 ч. 23 м.
Битрейт : 26 бит/сек
ElementCount : 591
Размер потока : 16,1 Кбайт (0%)
Заголовок : Full
Язык : English
Default : Нет
Forced : Нет
Текст #4
Идентификатор : 7
Формат : UTF-8
Идентификатор кодека : S_TEXT/UTF8
Идентификатор кодека/Информация : UTF-8 Plain Text
Продолжительность : 1 ч. 24 м.
Битрейт : 41 бит/сек
ElementCount : 921
Размер потока : 25,4 Кбайт (0%)
Заголовок : Full SDH
Язык : English
Default : Нет
Forced : Нет
Download / Скачать

Хотите скачать бесплатно? Зарегистрируйтесь на сайте (ссылка на регистрацию). Pirat.ca - самый быстрый торрент трекер в рунете!

Как скачивать  ·   Что такое торрент  ·   Рейтинг и ограничения

tank69 ®

Гроза морей

2874

Пост 11-Апр-2019 22:18 (спустя 6 часов)

[Q] 

Неплохой фильм, но чего то ему не хватило.
Приятного просмотра!
[Профиль]  [ЛС] 

Раемия

Флибустьер

Пост 11-Апр-2019 23:22 (спустя 1 час 3 минуты)

[Q] 

В Молдавии...угу))))Уже бы взяли Румынию,там хоть горы есть.

_________________
Любите кроликов!!!…и они отплатят вам тем же…
[Профиль]  [ЛС] 

pvm

Флибустьер

Пост 14-Апр-2019 01:23 (спустя 2 дня 2 часа)

[Q] 

Каким боком Молдавия?
[Профиль]  [ЛС] 
Показать сообщения:    
Ответить на тему

Текущее время: Сегодня 20:29

Часовой пояс: GMT + 4



Вы не можете начинать темы
Вы не можете отвечать на сообщения
Вы не можете редактировать свои сообщения
Вы не можете удалять свои сообщения
Вы не можете голосовать в опросах
Вы не можете прикреплять файлы к сообщениям
Вы не можете скачивать файлы

Майнать ▼