Любовницы (Елена Хазанова) [2019 г., комедия, WEB-DL, 720p]

Ответить на тему
 
Автор
Сообщение

Пост 12-Апр-2019 16:26

[Q] 

snyadanak

Морской Волк

-Любовницы
«На тропе войны!»
-- Производство: Россия
Режиссёр: Елена Хазанова
Жанр: комедия
Год выпуска: 2019 г.
Продолжительность: 01:37:22
Российская премьера: 28 Февраля 2019
В ролях: Паулина Андреева, Александра Бортич, Юлия Александрова, Мария Шалаева, Сергей Гармаш, Гоша Куценко, Юрий Стоянов, Максим Лагашкин, Александр Робак, Владимир Мишуков-Описание: Три обычные москвички — медсестра, студентка и актриса — случайно встречаются в баре и выясняют, что все они только что расстались со своими мужчинами, которые оказались связаны узами брака. Для начала девушки решают отомстить своим бывшим. Но, когда цель достигнута, у подруг появляется идея: используя свою смекалку и артистические способности, помогать таким же как они, сёстрам по несчастью, выводить на чистую воду неверных мужей и наказывать двуличных любовников. Ведь таких, как они — тысячи…-
Качество видео: WEB-DL
Контейнер: MKV
Стандарт разрешения: 720p
Видео кодек: MPEG4 AVC
Аудио кодек: AC3
Видео: MPEG-4 AVC, 3 976 kb/s, 1280x536, 24 fps
Аудио: iTunes | AC3, 48.0 kHz, 6 ch, 384 Кбит/с
General
Unique ID : 219248182901899549822294009280327231098 (0xA4F1AA00834B84B581503BD64DCAA67A)
Complete name : Lyubovnitsy.WEB-DL.720p.mkv
Format : Matroska
Format version : Version 2
File size : 3.03 GiB
Duration : 1 h 37 min
Overall bit rate : 4 449 kb/s
Movie name : Любовницы (2019)
Encoded date : UTC 2019-04-11 20:00:09
Writing application : mkvmerge v6.9.1 ('Blue Panther') 32bit built on Apr 18 2014 18:15:44
Writing library : libebml v1.3.0 + libmatroska v1.4.1
Video
ID : 1
Format : AVC
Format/Info : Advanced Video Codec
Format profile : [email protected]
Format settings : 2 Ref Frames
Format settings, CABAC : No
Format settings, ReFrames : 2 frames
Codec ID : V_MPEG4/ISO/AVC
Duration : 1 h 37 min
Bit rate : 3 976 kb/s
Width : 1 280 pixels
Height : 536 pixels
Display aspect ratio : 2.40:1
Frame rate mode : Constant
Frame rate : 24.000 FPS
Color space : YUV
Chroma subsampling : 4:2:0
Bit depth : 8 bits
Scan type : Progressive
Bits/(Pixel*Frame) : 0.241
Stream size : 2.70 GiB (89%)
Title : Любовницы (2019)
Language : English
Default : Yes
Forced : No
Color range : Limited
Color primaries : BT.709
Transfer characteristics : BT.709
Matrix coefficients : BT.709
Audio
ID : 2
Format : AC-3
Format/Info : Audio Coding 3
Commercial name : Dolby Digital
Codec ID : A_AC3
Duration : 1 h 37 min
Bit rate mode : Constant
Bit rate : 384 kb/s
Channel(s) : 6 channels
Channel layout : L R C LFE Ls Rs
Sampling rate : 48.0 kHz
Frame rate : 31.250 FPS (1536 SPF)
Bit depth : 16 bits
Compression mode : Lossy
Stream size : 267 MiB (9%)
Title : rus [iTunes]
Language : Russian
Service kind : Complete Main
Default : Yes
Forced : No
Download / Скачать

Хотите скачать бесплатно? Зарегистрируйтесь на сайте (ссылка на регистрацию). Pirat.ca - самый быстрый торрент трекер в рунете!

Как скачивать  ·   Что такое торрент  ·   Рейтинг и ограничения

Alingva

Легенда

513

Пост 12-Апр-2019 20:53 (спустя 4 часа)

[Q] 

Раздающему Спасибо!!!

_________________
Если Вам кажется что у Вас нимб над головой, то не обращайте на него внимание - это просто мания величия!
[Профиль]  [ЛС] 

borislav18

Штурман

Пост 13-Апр-2019 08:29 (спустя 11 часов)

[Q] 

Заценим, спасибо)
[Профиль]  [ЛС] 

Михалыч9966

Морской Волк

Пост 13-Апр-2019 23:42 (спустя 15 часов)

[Q] 

так се кинцо, тупо убить время, бабы, слюни, сопли На любителя Автору респект!!!
[Профиль]  [ЛС] 

Dmitriy1881

Корсар

Пост 14-Апр-2019 09:23 (спустя 9 часов)

[Q] 

посмотрим, спасибо!
[Профиль]  [ЛС] 

TinivoyZZ

Штурман

Пост 14-Апр-2019 13:55 (спустя 4 часа)

[Q] 

Супер! Спасибо!!!
[Профиль]  [ЛС] 

moscowpan

Гроза морей

5096

Пост 15-Апр-2019 13:49 (спустя 23 часа)

[Q] 

выключил на 10 минуте

_________________
[Профиль]  [ЛС] 
Показать сообщения:    
Ответить на тему

Текущее время: Сегодня 20:22

Часовой пояс: GMT + 4



Вы не можете начинать темы
Вы не можете отвечать на сообщения
Вы не можете редактировать свои сообщения
Вы не можете удалять свои сообщения
Вы не можете голосовать в опросах
Вы не можете прикреплять файлы к сообщениям
Вы не можете скачивать файлы

Майнать ▼