1+1: Голливудская история / The Upside (Нил Бёргер / Neil Burger) [2018 г., драма, комедия, WEB-DL, 1080p] Dub Sub (Eng) + Original (Eng)

Ответить на тему
 
Автор
Сообщение

Пост 13-Апр-2019 18:10

[Q] 

moscowpan

Гроза морей

-1+1: Голливудская история / The Upside-«Одинокий миллиардер в поисках острых ощущений»- Производство: США, Lantern Entertainment (II), The Weinstein Company
Год выпуска: 2018 г.
Жанр: драма, комедия
Продолжительность: 02:05:58
Мировая премьера: 8 сентября 2017
Российская премьера: 10 января 2019
Перевод: Профессиональный (полное дублирование)
Оригинальный аудиопоток: английский
Режиссёр: Нил Бёргер / Neil Burger-В ролях: Брайан Крэнстон, Кевин Харт, Николь Кидман, Эйджа Наоми Кинг, Джахи Диалло Уинстон, Женевьева Энджелсон, Голшифте Фарахани, Тейт Донован, Джулианна Маргулис, Сюзанн Савой, Майкл Куинлэн, Рэйчел Кристофер, Диего Агирр, Фернандо Матео мл., Кимберли С. Фербенкс, Рэйчел Алана Хэндлер, Рики Гарсиа, Дж.Дж. Филлипс, Амара Каран-Описание: Пентхаус в Нью Йорке, целый гараж коллекционных автомобилей и миллиарды скучающих президентов на банковском счету. Если есть тот, кто готов рискнуть состоянием ради минуты подлинного счастья, найдется и тот, кто ему в этом поможет.-
Качество видео: WEB-DL
Контейнер: MKV
Стандарт разрешения: 1080p
Видео кодек: MPEG4 AVC
Аудио кодек: AC3
Видео: MPEG-4 AVC, 1920x1038, 5197 Kbit/s, 24 fps
Аудио: 48 kHz, AC3, 5.1, 384 Kbps | iTunes | RUS
Аудио #2: 48 kHz, AC3, 5.1, 384 Kbps | Оригинал | ENG
Cубтитры: английские
General
Unique ID : 158825025003876705116927221201498289424 (0x777C964FF0E0AB6AEF6506EAFB743510)
Complete name : D:Video111The.Upside.2018.WEB-DL.1080p.seleZen.mkv
Format : Matroska
Format version : Version 4
File size : 5.24 GiB
Duration : 2 h 5 min
Overall bit rate : 5 967 kb/s
Movie name : The Upside 2018
Encoded date : UTC 2019-04-11 08:00:10
Writing application : mkvmerge v32.0.0 ('Astral Progressions') 64-bit
Writing library : libebml v1.3.7 + libmatroska v1.5.0
Video
ID : 1
Format : AVC
Format/Info : Advanced Video Codec
Format profile : [email protected]
Format settings : CABAC / 4 Ref Frames
Format settings, CABAC : Yes
Format settings, ReFrames : 4 frames
Codec ID : V_MPEG4/ISO/AVC
Duration : 2 h 5 min
Bit rate : 5 197 kb/s
Width : 1 920 pixels
Height : 1 038 pixels
Display aspect ratio : 1.85:1
Frame rate mode : Constant
Frame rate : 24.000 FPS
Color space : YUV
Chroma subsampling : 4:2:0
Bit depth : 8 bits
Scan type : Progressive
Bits/(Pixel*Frame) : 0.109
Stream size : 4.57 GiB (87%)
Language : English
Default : Yes
Forced : No
Color range : Limited
Color primaries : BT.709
Transfer characteristics : BT.709
Matrix coefficients : BT.709
Audio #1
ID : 2
Format : AC-3
Format/Info : Audio Coding 3
Commercial name : Dolby Digital
Codec ID : A_AC3
Duration : 2 h 5 min
Bit rate mode : Constant
Bit rate : 384 kb/s
Channel(s) : 6 channels
Channel layout : L R C LFE Ls Rs
Sampling rate : 48.0 kHz
Frame rate : 31.250 FPS (1536 SPF)
Bit depth : 16 bits
Compression mode : Lossy
Stream size : 346 MiB (6%)
Title : iTunes
Language : Russian
Service kind : Complete Main
Default : Yes
Forced : Yes
Audio #2
ID : 3
Format : AC-3
Format/Info : Audio Coding 3
Commercial name : Dolby Digital
Codec ID : A_AC3
Duration : 2 h 5 min
Bit rate mode : Constant
Bit rate : 384 kb/s
Channel(s) : 6 channels
Channel layout : L R C LFE Ls Rs
Sampling rate : 48.0 kHz
Frame rate : 31.250 FPS (1536 SPF)
Bit depth : 16 bits
Compression mode : Lossy
Stream size : 346 MiB (6%)
Title : Original
Language : English
Service kind : Complete Main
Default : No
Forced : No
Text
ID : 4
Format : UTF-8
Codec ID : S_TEXT/UTF8
Codec ID/Info : UTF-8 Plain Text
Duration : 2 h 2 min
Bit rate : 60 b/s
Count of elements : 2078
Stream size : 54.1 KiB (0%)
Title : SDH
Language : English
Default : No
Forced : No
Menu
00:00:00.000 : en:1
00:06:52.500 : en:2
00:15:39.916 : en:3
00:23:40.666 : en:4
00:31:22.124 : en:5
00:37:17.249 : en:6
00:44:07.082 : en:7
00:51:31.665 : en:8
01:00:19.956 : en:9
01:08:12.581 : en:10
01:14:17.331 : en:11
01:21:32.081 : en:12
01:28:42.122 : en:13
01:35:58.705 : en:14
01:42:28.080 : en:15
01:49:06.580 : en:16
Download / Скачать

Хотите скачать бесплатно? Зарегистрируйтесь на сайте (ссылка на регистрацию). Pirat.ca - самый быстрый торрент трекер в рунете!

Как скачивать  ·   Что такое торрент  ·   Рейтинг и ограничения

snyadanak

Морской Волк

953

Пост 15-Апр-2019 17:12 (спустя 1 день 23 часа)

[Q] 

Кто-то уже заценил? Достой ремейк?

_________________
Товарищи, мы здесь говорим, а там всё стоит
[Профиль]  [ЛС] 
Показать сообщения:    
Ответить на тему

Текущее время: Сегодня 20:34

Часовой пояс: GMT + 4



Вы не можете начинать темы
Вы не можете отвечать на сообщения
Вы не можете редактировать свои сообщения
Вы не можете удалять свои сообщения
Вы не можете голосовать в опросах
Вы не можете прикреплять файлы к сообщениям
Вы не можете скачивать файлы

Майнать ▼