Санкт - Петербург и императорские резиденции / St. Petersburg and Imperial Residences (Владимир Птащенко) [2009 г., документальный, DVDRip] MVO

Ответить на тему
 
Автор
Сообщение

Пост 14-Фев-2012 16:29

[Q] 

piratka

Штурман

Санкт - Петербург и императорские резиденции / St. Petersburg and Imperial Residences
Год выпуска: 2009
Производство: Россия, Студия Мастер Видео
Жанр: документальный
Продолжительность серии: 02:36:12
Перевод: Профессиональный (одноголосый, закадровый)
Субтитры: отсутствуют
Режиссер: Владимир Птащенко
Описание: В фильм вошла экскурсия по Петербургу, путешествие по каналам, панорама города с высоты птичьего полета, праздник, посвященный 300-летию города. А так же - подробная экскурсия по всем летним царским резиденциям с посещением больших и малых дворцов и праздника фонтанов в Петергофе. Зритель увидит интерьеры Эрмитажа, Русского музея и главных соборов города: Петропавловского, Исаакиевского, Казанского, Смольного. Романтические белые ночи и праздничный карнавал оставят незабываемое впечатление об одном из самых красивых городов мира.
Источник/Качество: DVDRip
Формат: MP4
Видео кодек: H.264
Аудио кодек: AAC
Видео: MPEG4 Video (H264) 704x576 25.00fps [Video Media Handler]
Аудио: AAC 48000Hz stereo 124kbps [Русский (rus)]
Фильм - участник международных фестивалей и призер конкурса "Лучший презентационный продукт о Санкт-Петербурге", проводимого администрацией Санкт-Петербурга.
General
Complete name : СПб и императорские резиденции.mp4
Format : MPEG-4
Format profile : Base Media / Version 2
Codec ID : mp42
File size : 1.90 GiB
Duration : 2h 36mn
Overall bit rate : 1 742 Kbps
Encoded date : UTC 2011-11-28 11:52:54
Tagged date : UTC 2011-11-28 15:29:36
Video
ID : 1
Format : AVC
Format/Info : Advanced Video Codec
Format profile : [email protected]
Format settings, CABAC : Yes
Format settings, ReFrames : 2 frames
Codec ID : avc1
Codec ID/Info : Advanced Video Coding
Duration : 2h 36mn
Bit rate mode : Variable
Bit rate : 1 540 Kbps
Maximum bit rate : 10.2 Mbps
Width : 704 pixels
Height : 576 pixels
Display aspect ratio : 1.222
Original display aspect ratio : 4:3
Frame rate mode : Constant
Frame rate : 25.000 fps
Standard : PAL
Color space : YUV
Chroma subsampling : 4:2:0
Bit depth : 8 bits
Scan type : Progressive
Bits/(Pixel*Frame) : 0.152
Stream size : 1.68 GiB (88%)
Language : English
Encoded date : UTC 2011-11-28 11:52:56
Tagged date : UTC 2011-11-28 15:29:36
Material_Duration : 9372000
Material_StreamSize : 1890162500
Material_FrameCount : 234300
Audio
ID : 2
Format : AAC
Format/Info : Advanced Audio Codec
Format profile : LC
Codec ID : 40
Duration : 2h 36mn
Bit rate mode : Variable
Bit rate : 124 Kbps
Maximum bit rate : 147 Kbps
Channel(s) : 2 channels
Channel positions : Front: L R
Sampling rate : 48.0 KHz
Compression mode : Lossy
Stream size : 139 MiB (7%)
Title : Русский
Language : Russian
Encoded date : UTC 2011-11-28 11:52:56
Tagged date : UTC 2011-11-28 15:29:36
Menu
00:00:00.000 : Раздел 1
00:53:25.080 : Раздел 2
01:18:10.160 : Раздел 3
01:38:23.440 : Раздел 4
02:02:51.680 : Раздел 5
02:14:25.240 : Раздел 6
02:25:50.520 : Раздел 7
Download / Скачать

Хотите скачать бесплатно? Зарегистрируйтесь на сайте (ссылка на регистрацию). Pirat.ca - самый быстрый торрент трекер в рунете!

Как скачивать  ·   Что такое торрент  ·   Рейтинг и ограничения



Последний раз редактировалось: piratka (2012-02-15 11:53), всего редактировалось 1 раз

piratka ®

Штурман

25

Пост 14-Фев-2012 16:38 (спустя 9 минут)

[Q] 

ток начал раздач, сильно не критикуйте за оформление. а что значит mvo в названии фильма?
[Профиль]  [ЛС] 

goxakrauter

4602

Пост 14-Фев-2012 19:21 (спустя 2 часа 43 минуты)

[Q] 

а что значит mvo в названии фильма?
Профессиональный (одноголосый, закадровый)
то бишь перевод...
[Профиль]  [ЛС] 

piratka ®

Штурман

25

Пост 14-Фев-2012 19:51 (спустя 29 минут)

[Q] 

а че в списке сидов троиться?
рома пока не наливали
[Профиль]  [ЛС] 

UcrusPazzo

7723

Пост 14-Фев-2012 22:31 (спустя 2 часа 40 минут)

[Q] 

piratka, есть это видео в рунете в более подходящем качестве.... т.е. в формате "AVI", может поищите и перезальете, просто бывают проблемы с кодеками для файлов формата "MP4". А там как хотите. Больше будут качать.
Ставлю "проверено", но допишите в тему название по-английски, такое как у вас на постере.

_________________
[Профиль]  [ЛС] 

piratka ®

Штурман

25

Пост 15-Фев-2012 11:50 (спустя 13 часов)

[Q] 

бороздить просторы инета в поисках лучшего качества смысла нет, т.к. это рип с dvd9 более лучшего качества по сравнению с mpeg4, а проблемы с кодеками легко решаемы их установкой. спасибо за одобрение.
[Профиль]  [ЛС] 
Показать сообщения:    
Ответить на тему

Текущее время: Сегодня 23:23

Часовой пояс: GMT + 4



Вы не можете начинать темы
Вы не можете отвечать на сообщения
Вы не можете редактировать свои сообщения
Вы не можете удалять свои сообщения
Вы не можете голосовать в опросах
Вы не можете прикреплять файлы к сообщениям
Вы не можете скачивать файлы

Майнать ▼