КВН 2011. Лига Рига. Финал [2011 г., юмор, сатира, ТВ-шоу, TVRip]

Ответить на тему
 
Автор
Сообщение

Пост 16-Мар-2012 20:37

[Q] 

Girsinni

Морской Волк

КВН 2011. Лига Рига. Финал
Год выпуска: 2011
Жанр: юмор, сатира, ТВ-шоу
Продолжительность: 3:20:40
Описание: Общественная организация «Латвийский КВН» при поддержке ТТО «АМиК». Начавшая свою работу в 2010 году, Лига «Рига» фактически стала своеобразным чемпионатом Европы по игре КВН. В рамках Латвийского КВН в 2010 году состоялось более 20 мероприятий. Участие в которых приняли около 40 команд из Латвии, Литвы, Эстонии, Беларуси, Германии, Украины, России, Германии, Финляндии, Молдовы и Франции.
Участники:
  • Слон и Моська (Таллин)
  • 13 факультет (Петрозаводск)
  • Для тебя ЕГУ (Вильнюс)
  • Сборная Германии
  • Рижские готы TVA (Рига)
  • Сборная Чехии
Источник/Качество: TVRip
Формат: AVI
Видеокодек: XVID
Аудиокодек: MP3
Видео: XviD, 1517 Кбит/сек, 1280х720, 16:9, 24,000 кадра/сек, 8 бит, 0.069 Бит/Пиксел
Аудио: MPEG Audio Layer 3, 192 Кбит/сек, 2 канала, 44,1 КГц
Жюри:
Михаил Землинский, Вячеслав Солдатенко, Андрей Мамыкин, Валентин Ящук,
Регина Лочмеле, Виталий Новиков, Геннадий Смирнов, Игорь Воскресенский.
Приветствие.
– Сборная ЧЕХИИ
– Слон и Моська (Эстония)
– Для тебя ЕГУ (Вильнюс)
– Рижские Готы TVA
– Сборная Германии
– 13 факультет (Петрозаводск)
Разминка + Капитанский
Разминка
– В чём принципиальная разница между первой и шестой командой?
– В жюри восемь человек, а комплектов табличек - семь. Прокомментируйте необидно этот феномен.
– Нас всё время куда-то зовут... Когда, куда и зачем нас нужно позвать, чтобы мы реально пошли?
Капитанский КОНКУРС
Сборная ЧЕХИИ /Куат Садыков/
– предложение объединить Чехию и Латвию
13 факультет (Петрозаводск) /Павел Устинов/
– запретить желтую прессу
Для тебя ЕГУ (Вильнюс) /Евгений Соленков/
– предложение своей будущей девушке
Слон и Моська (Таллин) /Станислав Ковалёв/
– советует читать эстонский "Делфи"
Рижские готы TVA (Рига) /Ярослав Кобец/
– попрощаться с сезоном по "готски"
Сборная Германии /Владислав Бондаренко/
– делится опытом с отмазками
Конкурс Одной Песни
13 факультет (Петрозаводск)
– выступление группы Руки В Верх в зависимости от гонорара
Слон и Моська (Эстония)
– песня о том, почему нельзя побеждать
Сборная Германии
– рассказ о свидании
Рижские Готы TVA
– новогоднее поздравление словами готов
Сборная ЧЕХИИ
– отъезд людей в другие страны
Для тебя ЕГУ (Вильнюс)
– о музе
Домашнее Задание
Для тебя ЕГУ (Вильнюс)
– на диком западе
Сборная Германии
– что мы умеем?
– латышская девушка знакомит парня с родителями
– заседание в Европарламенте
– песня о Сборной Германии
Слон и Моська (Эстония)
– необыкновенный воришка 31-го декабря
– необыкновенный воришка грабит банк
– необыкновенный воришка на бирже труда
13 факультет (Петрозаводск)
– о русской бане
Сборная ЧЕХИИ
– обычный день в офисе супер героев
Рижские Готы TVA
– Алиса в стране чудес
Общее
Полное имя : КВН. Лига Рига. Финал (2011).avi
Формат : AVI
Формат/Информация : Audio Video Interleave
Профиль формата : OpenDML
Размер файла : 2,41 Гбайт
Продолжительность : 3 ч. 20 м.
Общий поток : 1721 Кбит/сек
Видео
Идентификатор : 0
Формат : MPEG-4 Visual
Профиль формата : Advanced Simple@L5
Параметр BVOP формата : Нет
Параметр QPel формата : Нет
Параметр GMC формата : Без точки перехода
Параметр матрицы формата : Default (MPEG)
Идентификатор кодека : XVID
Идентификатор кодека/Подсказка : XviD
Продолжительность : 3 ч. 20 м.
Битрейт : 1517 Кбит/сек
Ширина : 1280 пикселей
Высота : 720 пикселей
Соотношение сторон : 16:9
Частота кадров : 24,000 кадра/сек
Цветовое пространство : YUV
Субдискретизация насыщенности : 4:2:0
Битовая глубина : 8 бит
Тип развёртки : Прогрессивная
Метод сжатия : С потерями
Бит/(Пиксели*Кадры) : 0.069
Размер потока : 2,13 Гбайт (88%)
Библиотека кодирования : XviD 1.2.1 (UTC 2008-12-04)
Аудио
Идентификатор : 1
Формат : MPEG Audio
Версия формата : Version 1
Профиль формата : Layer 3
Идентификатор кодека : 55
Идентификатор кодека/Подсказка : MP3
Продолжительность : 3 ч. 20 м.
Вид битрейта : Постоянный
Битрейт : 192 Кбит/сек
Каналы : 2 канала
Частота : 44,1 КГц
Метод сжатия : С потерями
Размер потока : 52,4 Мбайт (2%)
Выравнивание : Разделение по промежуткам
Продолжительность промежутка : 218 мс. (5,23 видеокадров)






Download / Скачать

Хотите скачать бесплатно? Зарегистрируйтесь на сайте (ссылка на регистрацию). Pirat.ca - самый быстрый торрент трекер в рунете!

Как скачивать  ·   Что такое торрент  ·   Рейтинг и ограничения



Последний раз редактировалось: Girsinni (2012-03-17 12:19), всего редактировалось 1 раз

Girsinni ®

Морской Волк

220

Пост 16-Мар-2012 20:41 (спустя 3 минуты)

[Q] 

Просьба строго не судить
ИМХО: как-никак Рижской лиге всего два года и до Вышки они еще не дотягивают
[Профиль]  [ЛС] 

linx69

Штурман

Пост 21-Июн-2012 08:55 (спустя 3 месяца 4 дня)

[Q] 

[Профиль]  [ЛС] 

Dima199971

Шкипер

3

Пост 12-Ноя-2012 21:53 (спустя 4 месяца 21 день)

[Q] 

[Профиль]  [ЛС] 

Dima199971

Шкипер

3

Пост 12-Ноя-2012 21:54 (спустя 45 секунд)

[Q] 

Супер передача!!
[Профиль]  [ЛС] 

YuzyakAV

Пост 17-Апр-2014 17:15 (спустя 1 год 5 месяцев)

[Q] 

Спасибо! Отлично!
[Профиль]  [ЛС] 
Показать сообщения:    
Ответить на тему

Текущее время: Сегодня 04:09

Часовой пояс: GMT + 4



Вы не можете начинать темы
Вы не можете отвечать на сообщения
Вы не можете редактировать свои сообщения
Вы не можете удалять свои сообщения
Вы не можете голосовать в опросах
Вы не можете прикреплять файлы к сообщениям
Вы не можете скачивать файлы

Майнать ▼