Древние пришельцы / Ancient Aliens (Кевин Бёрнс / Kevin Burns) [2009 г.] (научно-популярный, документальный) [HDTV-Rip] (VO)

Ответить на тему
 
Автор
Сообщение

Пост 05-Ноя-2011 08:33

[Q] 

Боцман

Древние пришельцы
Год выпуска: 2009
Производство: США
Жанр: научно-популярный, документальный
Продолжительность: 00:90:00
Перевод: Любительский (одноголосый)
Режиссер: Кевин Бёрнс / Kevin Burns
В ролях: Эрик вон Дэникен, Майкл Кремо, Джордж Нури, Роберт Клотворти
Описание: Возможно ли, что разумные формы жизни посетили Землю тысячи лет назад, принеся с собой технологии кардинально повлиявшие на ход истории и развития человечества? Теория "древних пришельцев", опубликованная в 1968 году в бестселлере Эриха фон Деникена "Колесницы богов", пошатнула представления людей об общеизвестном прогрессе человечества. Древние пещерные рисунки странных существ, остатки взлетно-посадочных полос в Перу, индийские тексты, описывающие "летающие машины богов"... вот лишь некоторые необычные археологические артефакты на которые ссылается Деникен в качестве доказательств того, что "древние астронавты" были хорошо известны нашим предкам.
Источник/Качество: HDTVRip
Формат: AVI
Видео кодек: XviD
Аудио кодек: AC3
Видео: Xvid 720x400 23.98fps 2 043 Kbps
Аудио: Dolby AC3 48000Hz stereo 192Kbps
General
Format : AVI
Format/Info : Audio Video Interleave
File size : 1.42 GiB
Duration : 1h 30mn
Overall bit rate : 2 241 Kbps
Writing application : VirtualDubMod 1.5.4.1 (build 2178/release)
Writing library : VirtualDubMod build 2178/release
Video #0
ID : 0
Format : MPEG-4 Visual
Format settings, BVOP : Yes
Format settings, QPel : No
Format settings, GMC : No warppoints
Format settings, Matrix : Default (H.263)
Muxing mode : Packed bitstream
Codec ID : DX50
Codec ID/Hint : DivX 5
Duration : 1h 30mn
Bit rate : 2 043 Kbps
Width : 720 pixels
Height : 400 pixels
Display aspect ratio : 16:9
Frame rate : 23.976 fps
Resolution : 24 bits
Colorimetry : 4:2:0
Scan type : Progressive
Bits/(Pixel*Frame) : 0.296
Stream size : 1.29 GiB (91%)
Writing library : DivX 6.8.4
Audio #1
ID : 1
Format : AC-3
Format/Info : Audio Coding 3
Codec ID : 2000
Duration : 1h 30mn
Bit rate mode : Constant
Bit rate : 192 Kbps
Channel(s) : 2 channels
Channel positions : L R
Sampling rate : 48.0 KHz
Stream size : 124 MiB (9%)
Alignment : Split accross interleaves
Interleave, duration : 96 ms (2.30 video frames)
Interleave, preload duration : 96 ms


Download / Скачать

Хотите скачать бесплатно? Зарегистрируйтесь на сайте (ссылка на регистрацию). Pirat.ca - самый быстрый торрент трекер в рунете!

Как скачивать  ·   Что такое торрент  ·   Рейтинг и ограничения



Последний раз редактировалось: Боцман (2016-03-04 07:11), всего редактировалось 2 раз(а)

ГГБ

Корсар

Пост 05-Ноя-2011 17:25 (спустя 8 часов)

[Q] 

Присоединился!
dab1959, спасибо за восстановление раздачи

_________________
Если долго всматриваться в бездну-бездна начнёт всматриваться в тебя.
Фридрих Ницше.
[Профиль]  [ЛС] 

Shlfck

1461

Пост 05-Ноя-2011 23:57 (спустя 6 часов)

[Q] 

в обойме

_________________
[Профиль]  [ЛС] 

Боцман ®

1812

Пост 06-Ноя-2011 04:18 (спустя 4 часа)

[Q] 

dab1959, спасибо за восстановление раздачи
)))))

_________________
не верь не бойся не проси не плачь...
[Профиль]  [ЛС] 

cergei63

Лоцман

Пост 16-Ноя-2011 03:03 (спустя 9 дней)

[Q] 

спасибо за восстановление раздачи
[Профиль]  [ЛС] 

Юрий1966

Морской Волк

Пост 17-Ноя-2011 19:30 (спустя 1 день 16 часов)

[Q] 

Спасибо за фильм!
[Профиль]  [ЛС] 

Боцман ®

1812

Пост 19-Ноя-2011 00:38 (спустя 1 день 5 часов)

[Q] 

Пожалуйста... Качайте на здоровье и скачав помогите на раздаче... А то канал узковат у меня... Провайдер сцуко режет...

_________________
не верь не бойся не проси не плачь...
[Профиль]  [ЛС] 

ParMarVarKar

Шкипер

Пост 01-Фев-2012 22:34 (спустя 2 месяца 12 дней)

[Q] 

[Профиль]  [ЛС] 

dadry

Штурман

Пост 03-Апр-2012 23:08 (спустя 2 месяца 2 дня)

[Q] 

[Профиль]  [ЛС] 

canfly

526

Пост 23-Сен-2012 15:25 (спустя 5 месяцев 19 дней)

[Q] 


На самом деле,Марс есть то,откуда мы пришли,наши технологи боятся,не дают нам знать...

_________________
Будь я малость помоложе, я б с душою дорогой,
Человекам трём по роже, дал как минимум ногой.
Да как минимум пяти бы, дал по роже бы рукой.
Так скажите мне спасибо, что я старенький такой.
[Профиль]  [ЛС] 

Фтещт

Корсар

61

Пост 10-Май-2013 18:21 (спустя 7 месяцев 17 дней)

[Q] 

[Профиль]  [ЛС] 

Фтещт

Корсар

61

Пост 10-Май-2013 18:21 (спустя 4 секунды)

[Q] 

поаяоыегнрл
[Профиль]  [ЛС] 

Rei1

Легенда

Пост 04-Мар-2016 12:49 (спустя 2 года 9 месяцев)

[Q] 

Спасибо! Оно того стоит!
[Профиль]  [ЛС] 

ksained_mate

Корсар

Пост 04-Мар-2016 14:16 (спустя 1 час 26 минут)

[Q] 

ого! качаю! на раздаче задержусь и помогу :)
[Профиль]  [ЛС] 

Боцман ®

1812

Пост 04-Мар-2016 17:33 (спустя 3 часа)

[Q] 

738299ого! качаю! на раздаче задержусь и помогу :)
спасибо... буду признателен ибо провайдер то канал режет то у него аварии... Ростелеком у меня и этим все сказано...))))))

_________________
не верь не бойся не проси не плачь...
[Профиль]  [ЛС] 

ANRI63

Шкипер

Пост 04-Мар-2016 21:30 (спустя 3 часа)

[Q] 

Дайте скорости. Качаю уже почти 2 часа, скачано 23%
[Профиль]  [ЛС] 

Боцман ®

1812

Пост 04-Мар-2016 21:54 (спустя 24 минуты)

[Q] 

738378Дайте скорости. Качаю уже почти 2 часа, скачано 23%
чуть выше мой пост прочти....) я на раздаче а меня нет в сидах и канал режет....

_________________
не верь не бойся не проси не плачь...
[Профиль]  [ЛС] 
Показать сообщения:    
Ответить на тему

Текущее время: Сегодня 09:24

Часовой пояс: GMT + 4



Вы не можете начинать темы
Вы не можете отвечать на сообщения
Вы не можете редактировать свои сообщения
Вы не можете удалять свои сообщения
Вы не можете голосовать в опросах
Вы не можете прикреплять файлы к сообщениям
Вы не можете скачивать файлы

Майнать ▼