Уважаемый Гость!
Вы можете поддержать проект и зарегистрироваться у наших партнеров - онлайн-стратегия MyLands. При регистрации в игре Вы получите код, который сможете активировать после регистрации на pirat.ca и получить 1000 дублонов.

Ваш код:
8ee63963a1af4b61b17de78cb16f5350ca06c926
 
     

Леон / Léon (Люк Бессон / Luc Besson) [1994 г., триллер, драма, криминал, DVDRip] (MVO)

Ответить на тему
 
Автор
Сообщение

Пост 10-Ноя-2011 14:58

[Q] 

erchine

Леон / Léon
Год выпуска: 1994
Мировая премьера: 14 сентября 1994
Производство: Франция, Gaumont
Жанр: триллер, драма, криминал
Продолжительность: 1:45:43
Перевод: Профессиональный (многоголосый, закадровый)
Режиссер: Люк Бессон / Luc Besson
В ролях: Жан Рено, Гари Олдман, Натали Портман, Дэнни Айелло, Питер Эппел, Уилли Уан Блад, Дон Крич, Кит Э. Гласко, Рэндолф Скотт, Майкл Бадалуччо, Эллен Грин, Элизабет Риджен, Карл Дж. Матусович, Фрэнк Сенгер, Эрик Шалье, Люк Бернар, Майвенн Ле Беско, Джесси Кеосян, Джордж Мартин, Кент Бродхерст, Томми Холлис, Питер Линари, Джеффри Бэйтмэн, Дэвид В. Батлер, , Роберт Ласардо, Сонни Зито, Рэнди Перлстайн, Джефф МакБрайд, Фред Фишер, Адам Буш, Марио Тодиско, Джернард Беркс, Сами Насери, Марк Андреони, Жан-Юг Англад
Описание: Леон, хладнокровный и методичный наёмный убийца, спасает жизнь двенадцатилетней Матильды, семья которой погибла от рук коррумпированных полицейских, работников департамента по борьбе с наркотиками. Леону приходится взять на себя заботу о девочке. Матильда, решив отомстить за смерть своего младшего четырёхлетнего брата, уговаривает Леона научить её ремеслу профессионального убийцы. В «оплату» за учебу Матильда помогает вести домашнее хозяйство и учит самого Леона быть чуть более человечным.
IMDB, КиноПоиск
Источник/Качество: DVDRip
Формат: AVI
Видео: DivX 5, 720x320, 25.00fps, 1395 Kbps
Аудио: Dolby AC3 48000Hz 6ch 448kbps
"Сезар", 1995 год
Номинации:
Лучший фильм
Лучший актер (Жан Рено)
Лучший режиссер (Люк Бессон)
Лучшая работа оператора
Лучший звук
Лучший монтаж
Лучший саундтрек
"Чешский лев" за лучший иностранный фильм в Чехии по итогам 1995 года.
General
Complete name : D:\Leon.1994.DivX.DVDRip.avi
Format : AVI
Format/Info : Audio Video Interleave
File size : 1.37 GiB
Duration : 1h 45mn
Overall bit rate : 1 849 Kbps
Writing application : VirtualDubMod 1.5.4.1 (build 2178/release)
Writing library : VirtualDubMod build 2178/release
Video
ID : 0
Format : MPEG-4 Visual
Format settings, BVOP : No
Format settings, QPel : No
Format settings, GMC : No warppoints
Format settings, Matrix : Default (H.263)
Codec ID : DX50
Codec ID/Hint : DivX 5
Duration : 1h 45mn
Bit rate : 1 395 Kbps
Width : 720 pixels
Height : 320 pixels
Display aspect ratio : 2.25:1
Frame rate : 25.000 fps
Color space : YUV
Chroma subsampling : 4:2:0
Bit depth : 8 bits
Scan type : Progressive
Compression mode : Lossy
Bits/(Pixel*Frame) : 0.242
Stream size : 1.03 GiB (75%)
Writing library : DivX 5.1.1 (Maupiti) (UTC 2003-11-19)
Audio
ID : 1
Format : AC-3
Format/Info : Audio Coding 3
Mode extension : CM (complete main)
Codec ID : 2000
Duration : 1h 45mn
Bit rate mode : Constant
Bit rate : 448 Kbps
Channel(s) : 6 channels
Channel positions : Front: L C R, Side: L R, LFE
Sampling rate : 48.0 KHz
Bit depth : 16 bits
Compression mode : Lossy
Stream size : 339 MiB (24%)
Alignment : Split accross interleaves
Interleave, duration : 96 ms (2.40 video frames)
Interleave, preload duration : 96 ms
Language : English



Download / Скачать

Хотите скачать бесплатно? Зарегистрируйтесь на сайте (ссылка на регистрацию). Pirat.ca - самый быстрый торрент трекер в рунете!

Как скачивать  ·   Что такое торрент  ·   Рейтинг и ограничения



Последний раз редактировалось: erchine (2011-11-10 16:26), всего редактировалось 1 раз

Пост 11-Ноя-2011 06:50 (спустя 15 часов)

Топик был перенесен из форума Художественные фильмы (Зарубежное кино) в форум Основной кинофонд (1970 г. - 1999 г.)

Skinwalker
 

Da-uzhzh

Шкипер

144

Пост 12-Дек-2011 09:29 (спустя 1 месяц 1 день)

[Q] 

Суперфильм! смотреть всем!!! спасибо за релиз:)

_________________
[Профиль]  [ЛС] 

S_N_A_K_E

Флибустьер

Пост 16-Янв-2012 13:05 (спустя 1 месяц 4 дня)

[Q] 

Спасибо) добавил в колекцию
[Профиль]  [ЛС] 

alexandr.x79

Корсар

819

Пост 18-Янв-2012 19:51 (спустя 2 дня 6 часов)

[Q] 

Жан Рено,как всегда неотразим.
[Профиль]  [ЛС] 

megamastor

2886

Пост 04-Апр-2012 21:24 (спустя 2 месяца 17 дней)

[Q] 

Знатный фильм!
[Профиль]  [ЛС] 

CHARLI2236

1186

Пост 10-Апр-2012 21:48 (спустя 6 дней)

[Q] 

спасибо

_________________
[Профиль]  [ЛС] 

matroskinket

Лоцман

Пост 06-Окт-2014 19:34 (спустя 2 года 5 месяцев)

[Q] 

Спасибо!!!
[Профиль]  [ЛС] 
Показать сообщения:    
Ответить на тему

Текущее время: Сегодня 07:14

Часовой пояс: GMT + 4



Вы не можете начинать темы
Вы не можете отвечать на сообщения
Вы не можете редактировать свои сообщения
Вы не можете удалять свои сообщения
Вы не можете голосовать в опросах
Вы не можете прикреплять файлы к сообщениям
Вы не можете скачивать файлы

▼ Вниз