Уважаемый Гость!
Вы можете поддержать проект и зарегистрироваться у наших партнеров - онлайн-стратегия MyLands. При регистрации в игре Вы получите код, который сможете активировать после регистрации на pirat.ca и получить 1000 дублонов.

Ваш код:
cbfc972db866f9f3df6a6fea4c2549cc4e2f5835
 
     

(Шансон) Михаил Круг - Самые хитовые хиты (2009, FLAC, image+.cue, lossless)

Ответить на тему
 
Автор
Сообщение

Пост 24-Ноя-2011 11:02

[Q] 

Борей_64

Корсар

Михаил Круг - Самые хитовые хиты
Производство: Россия
Жанр: Шансон
Год выпуска: 2009
Формат: FLAC
Битрейт аудио: lossless
Продолжительность: 01:15:21
Трэклист:
01. Владимирский централ
02. Водочку пьем...
03. Воробьи
04. Давай поговорим
05. Девочка-пай
06. День как день
07. Дороги
08. Жиган-Лимон
09. Здравствуйте!
10. Кольщик
11. Мадам
12. Не спалила, любила
13. Ништяк, браток!
14. Письмо маме
15. Помнишь, были годы…
16. Про Таню Сытину и всех остальных
17. Роза
18. Светочка
19. Фраер
20. Электричка
Exact Audio Copy V0.99 prebeta 5 from 4. May 2009
Отчёт EAC об извлечении, выполненном 27. декабря 2010, 1:47
Михаил Круг / Самые хитовые хиты
Дисковод: MATSHITADVD-RAM UJ-850S Adapter: 2 ID: 0
Режим чтения : Достоверность
Использование точного потока : Да
Отключение кэша аудио : Да
Использование указателей C2 : Нет
Коррекция смещения при чтении : 102
Способность читать области Lead-in и Lead-out : Нет
Заполнение пропущенных сэмплов тишиной : Да
Удаление блоков с тишиной в начале и конце : Нет
При вычислениях CRC использовались нулевые сэмплы : Да
Интерфейс : Установленный внешний ASPI-интерфейс
Выходной формат : Внутренние WAV-операции
Формат сэмплов : 44.100 Гц; 16 бит; стерео
TOC извлечённого CD
Трек | Старт | Длительность | Начальный сектор | Конечный сектор
---------------------------------------------------------------------
1 | 0:00.00 | 4:27.49 | 0 | 20073
2 | 4:27.49 | 3:00.07 | 20074 | 33580
3 | 7:27.56 | 2:49.44 | 33581 | 46299
4 | 10:17.25 | 4:06.37 | 46300 | 64786
5 | 14:23.62 | 4:17.74 | 64787 | 84135
6 | 18:41.61 | 2:52.18 | 84136 | 97053
7 | 21:34.04 | 4:41.26 | 97054 | 118154
8 | 26:15.30 | 2:53.69 | 118155 | 131198
9 | 29:09.24 | 2:34.20 | 131199 | 142768
10 | 31:43.44 | 4:47.16 | 142769 | 164309
11 | 36:30.60 | 4:15.25 | 164310 | 183459
12 | 40:46.10 | 4:10.17 | 183460 | 202226
13 | 44:56.27 | 3:15.41 | 202227 | 216892
14 | 48:11.68 | 4:16.11 | 216893 | 236103
15 | 52:28.04 | 3:06.18 | 236104 | 250071
16 | 55:34.22 | 4:35.32 | 250072 | 270728
17 | 60:09.54 | 4:46.66 | 270729 | 292244
18 | 64:56.45 | 4:24.45 | 292245 | 312089
19 | 69:21.15 | 2:56.23 | 312090 | 325312
20 | 72:17.38 | 3:03.46 | 325313 | 339083
Характеристики диапазона извлечения и сообщения об ошибках
Выбранный диапазон
Имя файла D:\Музыка\Запись\2010 - Самые хитовые хиты\Михаил Круг - Самые хитовые хиты.wav
Пиковый уровень 100.0 %
Качество диапазона 100.0 %
CRC теста EABB3680
CRC копии EABB3680
Копирование... OK
Ошибок не произошло
Конец отчёта
REM GENRE Chanson
REM DATE 2009
REM DISCID 4111A914
REM COMMENT "ExactAudioCopy v0.99pb5"
PERFORMER "Михаил Круг"
TITLE "Самые хитовые хиты"
FILE "Михаил Круг - Самые хитовые хиты.flac" WAVE
TRACK 01 AUDIO
TITLE "Владимирский централ"
PERFORMER "Михаил Круг"
FLAGS DCP
INDEX 01 00:00:00
TRACK 02 AUDIO
TITLE "Водочку пьем..."
PERFORMER "Михаил Круг"
FLAGS DCP
INDEX 00 04:25:49
INDEX 01 04:27:49
TRACK 03 AUDIO
TITLE "Воробьи"
PERFORMER "Михаил Круг"
FLAGS DCP
INDEX 00 07:25:56
INDEX 01 07:27:56
TRACK 04 AUDIO
TITLE "Давай поговорим"
PERFORMER "Михаил Круг"
FLAGS DCP
INDEX 00 10:15:25
INDEX 01 10:17:25
TRACK 05 AUDIO
TITLE "Девочка-пай"
PERFORMER "Михаил Круг"
FLAGS DCP
INDEX 00 14:21:62
INDEX 01 14:23:62
TRACK 06 AUDIO
TITLE "День как день"
PERFORMER "Михаил Круг"
FLAGS DCP
INDEX 00 18:39:61
INDEX 01 18:41:61
TRACK 07 AUDIO
TITLE "Дороги"
PERFORMER "Михаил Круг"
FLAGS DCP
INDEX 00 21:32:04
INDEX 01 21:34:04
TRACK 08 AUDIO
TITLE "Жиган-Лимон"
PERFORMER "Михаил Круг"
FLAGS DCP
INDEX 00 26:13:30
INDEX 01 26:15:30
TRACK 09 AUDIO
TITLE "Здравствуйте!"
PERFORMER "Михаил Круг"
FLAGS DCP
INDEX 00 29:07:24
INDEX 01 29:09:24
TRACK 10 AUDIO
TITLE "Кольщик"
PERFORMER "Михаил Круг"
FLAGS DCP
INDEX 00 31:41:44
INDEX 01 31:43:44
TRACK 11 AUDIO
TITLE "Мадам"
PERFORMER "Михаил Круг"
FLAGS DCP
INDEX 00 36:28:60
INDEX 01 36:30:60
TRACK 12 AUDIO
TITLE "Не спалила, любила"
PERFORMER "Михаил Круг"
FLAGS DCP
INDEX 00 40:44:10
INDEX 01 40:46:10
TRACK 13 AUDIO
TITLE "Ништяк, браток!"
PERFORMER "Михаил Круг"
FLAGS DCP
INDEX 00 44:54:27
INDEX 01 44:56:27
TRACK 14 AUDIO
TITLE "Письмо маме"
PERFORMER "Михаил Круг"
FLAGS DCP
INDEX 00 48:09:68
INDEX 01 48:11:68
TRACK 15 AUDIO
TITLE "Помнишь, были годы..."
PERFORMER "Михаил Круг"
FLAGS DCP
INDEX 00 52:26:04
INDEX 01 52:28:04
TRACK 16 AUDIO
TITLE "Про Таню Сытину и всех остальных"
PERFORMER "Михаил Круг"
FLAGS DCP
INDEX 00 55:32:22
INDEX 01 55:34:22
TRACK 17 AUDIO
TITLE "Роза"
PERFORMER "Михаил Круг"
FLAGS DCP
INDEX 00 60:07:54
INDEX 01 60:09:54
TRACK 18 AUDIO
TITLE "Светочка"
PERFORMER "Михаил Круг"
FLAGS DCP
INDEX 00 64:54:45
INDEX 01 64:56:45
TRACK 19 AUDIO
TITLE "Фраер"
PERFORMER "Михаил Круг"
FLAGS DCP
INDEX 00 69:19:15
INDEX 01 69:21:15
TRACK 20 AUDIO
TITLE "Электричка"
PERFORMER "Михаил Круг"
FLAGS DCP
INDEX 00 72:15:38
INDEX 01 72:17:38
Download / Скачать

Хотите скачать бесплатно? Зарегистрируйтесь на сайте (ссылка на регистрацию). Pirat.ca - самый быстрый торрент трекер в рунете!

Как скачивать  ·   Что такое торрент  ·   Рейтинг и ограничения

Lawyer095

Штурман

Пост 30-Окт-2012 22:51 (спустя 11 месяцев 6 дней)

[Q] 

Хороший альбом. Забираю. Спасибо.
[Профиль]  [ЛС] 

IgorWOO

Корсар

Пост 25-Дек-2012 21:10 (спустя 1 месяц 25 дней)

[Q] 

Спасибо, здорово!)
[Профиль]  [ЛС] 

Pirat38rus

Корсар

Пост 03-Янв-2013 11:43 (спустя 8 дней)

[Q] 

[Профиль]  [ЛС] 

IgorWOO

Корсар

Пост 07-Янв-2013 22:54 (спустя 4 дня)

[Q] 

Все конешн супер, но много не хватает, если учесть, что у Круга, каждая песнь, индивидуальна, не повторима, как отдельный мирок
[Профиль]  [ЛС] 

leestan27

Корсар

Пост 27-Мар-2015 22:36 (спустя 2 года 2 месяца)

[Q] 

Автору респект!!!
[Профиль]  [ЛС] 
Показать сообщения:    
Ответить на тему

Текущее время: Сегодня 07:51

Часовой пояс: GMT + 4



Вы не можете начинать темы
Вы не можете отвечать на сообщения
Вы не можете редактировать свои сообщения
Вы не можете удалять свои сообщения
Вы не можете голосовать в опросах
Вы не можете прикреплять файлы к сообщениям
Вы не можете скачивать файлы

▼ Вниз