Уважаемый Гость!
Вы можете поддержать проект и зарегистрироваться у наших партнеров - онлайн-стратегия MyLands. При регистрации в игре Вы получите код, который сможете активировать после регистрации на pirat.ca и получить 1000 дублонов.

Ваш код:
827bbf362f25a12f4dde2f42d3a9197afb5d08f8
 
     

Флинтстоуны / The Flintstones (Джозеф Барбера, Уильям Ханна / Joseph Barbera, William Hanna) [1960 г.] (Комедия, Мультфильм) [DVDRip]

Ответить на тему
 
Автор
Сообщение

Пост 26-Ноя-2011 11:17

[Q] 

Андря

Флинтстоуны / The Flintstones Год выпуска: 1960
Мировая премьера: 30 сентября 1960
Производство: США
Жанр: Комедия, Мультфильм
Продолжительность: ~23 минуты - серия
Перевод: Профессиональный (полное дублирование)
Оригинальный аудиопоток: Отсутствует
Субтитры: Отсутствуют
Режиссер: Джозеф Барбера, Уильям Ханна / Joseph Barbera, William Hanna
Роли озвучивали: Алан Рид, Мэл Бланк, Джерри Джонсон, Доуз Батлер, Джун Форэй, Джерри Манн, Дон Мессик, Хэл Смит и др.
Описание: Хотите стать свидетелем легенды каменного века? Следите за приключениями самого популярного мультяшного пещерного клана в этой доисторической ретроспективе, представляющей самые первые истории Фреда и Уилмы Флинстоун и их лучших друзей - Барни и Бетти Рабл!
В этой классической мульткомедии города Бедрок особое место занимает бытовая техника с "первобытным" уклоном. Хобот мастодонта используется как водопроводный кран и душ, птица действует клювом как игла фонографа, а мусороедный свинозаурус заменят мусоропровод. Транспорт семейства Флинтстоунов - новейший автомобиль с откидным верхом, приводимый в движение силой ног, а любимое домашнее животное - Дино, дружелюбный динозавр.
Доп. информация:
Звук взят с VHS. Видео - DVDrip.
Ценность этой версии мультиков в том, что озвучка - полноценный дубляж актёрами, который был сделан 12 лет назад.
Огромная благодарность Dayanira за предоставленные VHSRip'ы!
Источник/Качество: DVDRip
Формат: AVI
Видео кодек: XviD
Аудио кодек: MP3
Видео: 640x480 (1.33:1), 23.98fps, XviD Final 1.0.3 (build 37), ~1500kbps avg
Аудио: MPEG Audio Layer 3, 44000Hz stereo, ~128Kbps avg
Общее
Полное имя : The Flintstones\01 - The Flintstone Flyer.avi
Формат : AVI
Формат/Информация : Audio Video Interleave
Размер файла : 276 Мбайт
Продолжительность : 24 м.
Общий поток : 1604 Кбит/сек
Программа кодирования : VirtualDubMod 1.5.4.1 (build 2178/release)
Библиотека кодирования : VirtualDubMod build 2178/release
Видео
Идентификатор : 0
Формат : MPEG-4 Visual
Профиль формата : Advanced [email protected]
Параметр BVOP формата : 2
Параметр QPel формата : Нет
Параметр GMC формата : Без точки перехода
Параметр матрицы формата : Default (H.263)
Режим смешивания : Сжатый битовый поток
Идентификатор кодека : XVID
Идентификатор кодека/Подсказка : XviD
Продолжительность : 24 м.
Битрейт : 1467 Кбит/сек
Ширина : 640 пикселей
Высота : 480 пикселей
Соотношение сторон : 4:3
Частота кадров : 23,976 кадра/сек
Частота кадров в оригинале : 25,000 кадров/сек
Цветовое пространство : YUV
Субдискретизация насыщенности : 4:2:0
Битовая глубина : 8 бит
Тип развёртки : Прогрессивная
Метод сжатия : С потерями
Бит/(Пиксели*Кадры) : 0.199
Размер потока : 252 Мбайт (91%)
Библиотека кодирования : XviD 1.0.3 (UTC 2004-12-20)
Аудио
Идентификатор : 1
Формат : MPEG Audio
Версия формата : Version 1
Профиль формата : Layer 3
Режим : Joint stereo
Расширение режима : MS Stereo
Идентификатор кодека : 55
Идентификатор кодека/Подсказка : MP3
Продолжительность : 24 м.
Вид битрейта : Постоянный
Битрейт : 128 Кбит/сек
Каналы : 2 канала
Частота : 44,1 КГц
Метод сжатия : С потерями
Размер потока : 22,0 Мбайт (8%)
Выравнивание : Разделение по промежуткам
Продолжительность промежутка : 42 мс. (1,00 видеокадр)
Время предзагрузки промежутка : 500 мс.
Download / Скачать

Хотите скачать бесплатно? Зарегистрируйтесь на сайте (ссылка на регистрацию). Pirat.ca - самый быстрый торрент трекер в рунете!

Как скачивать  ·   Что такое торрент  ·   Рейтинг и ограничения



Последний раз редактировалось: Андря (2011-11-30 17:35), всего редактировалось 6 раз(а)

Пост 30-Ноя-2011 17:33 (спустя 4 дня)

Топик был перенесен из форума Мультипликация в форум Мультсериалы

CaptRom
 

dogovor

Морской Волк

Пост 19-Янв-2015 21:22 (спустя 3 года 1 месяц)

[Q] 

.... Всем качать!!! ....
[Профиль]  [ЛС] 
Показать сообщения:    
Ответить на тему

Текущее время: Сегодня 02:36

Часовой пояс: GMT + 4



Вы не можете начинать темы
Вы не можете отвечать на сообщения
Вы не можете редактировать свои сообщения
Вы не можете удалять свои сообщения
Вы не можете голосовать в опросах
Вы не можете прикреплять файлы к сообщениям
Вы не можете скачивать файлы

▼ Вниз