Впритык / Due Date (Тодд Филлипс / Todd Phillips) [2010 г., драма, комедия, HDRip]

Ответить на тему
 
Автор
Сообщение

Пост 27-Ноя-2011 11:56

[Q] 

zyyx

--Впритык / Due Date
«Когда всё через...»
-- Год выпуска: 2010
Мировая премьера: 31 октября 2010
Российская премьера: 4 ноября 2010, «Каро-Премьер»
Дата выхода DVD: 3 марта 2011, «CP-Digital»
Производство: США
Жанр: драма, комедия
Продолжительность: 01:34:23
Перевод: Профессиональный (полное дублирование) [Лицензия]
Оригинальный аудиопоток: Английский
Режиссер: Тодд Филлипс / Todd Phillips
В ролях: Роберт Дауни мл., Зак Галифианакис, Мишель Монахэн, Джейми Фокс, Джульетт Льюис, Дэнни МакБрайд, РЗА, Мэтт Уолш, Броди Стивенс, Джейкоб Ульрих
Описание: Питер готовится стать отцом и находится на грани нервного срыва. И его нервам не идет на пользу тот факт, что ему предстоит предпринять целое путешествие, да еще и в компании честолюбивого актера, чтобы успеть добраться домой к рождению собственного ребенка.-Сэмпл | IMDB | КиноПоиск-Источник/Качество: HDRip
Формат: AVI
Видео кодек: XviD
Аудио кодек: AC3
Видео: 720x304 (2.37:1), 23.976 fps, XviD build 50 ~1358 kbps avg, 0.26 bit/pixel
Аудио: 48 kHz, AC3 Dolby Digital, 3/2 (L,C,R,l,r) + LFE ch, ~384 kbps (Дубляж)
Аудио #2: 48 kHz, AC3 Dolby Digital, 3/2 (L,C,R,l,r) + LFE ch, ~448 kbps (Оригинал)
Общее
Полное имя : F:\pirat.ca\Due Date.2010.D.HDRip.XviD.JRG.avi
Формат : AVI
Формат/Информация : Audio Video Interleave
Размер файла : 1,45 Гбайт
Продолжительность : 1 ч. 34 м.
Общий поток : 2206 Кбит/сек
Программа кодирования : VirtualDubModRus 1.5.10.2 (build 2542/release)
Библиотека кодирования : VirtualDubMod build 2542/release
Видео
Идентификатор : 0
Формат : MPEG-4 Visual
Профиль формата : Advanced [email protected]
Параметр BVOP формата : 2
Параметр QPel формата : Нет
Параметр GMC формата : Без точки перехода
Параметр матрицы формата : Выборочная
Идентификатор кодека : XVID
Идентификатор кодека/Подсказка : XviD
Продолжительность : 1 ч. 34 м.
Битрейт : 1360 Кбит/сек
Ширина : 720 пикселей
Высота : 304 пикселя
Соотношение сторон : 2,35:1
Частота кадров : 23,976 кадра/сек
Цветовое пространство : YUV
Субдискретизация насыщенности : 4:2:0
Битовая глубина : 8 бит
Тип развёртки : Прогрессивная
Метод сжатия : С потерями
Бит/(Пиксели*Кадры) : 0.259
Размер потока : 918 Мбайт (62%)
Библиотека кодирования : XviD 1.2.1 (UTC 2008-12-04)
Аудио #1
Идентификатор : 1
Формат : AC-3
Формат/Информация : Audio Coding 3
Расширение режима : CM (complete main)
Идентификатор кодека : 2000
Продолжительность : 1 ч. 34 м.
Вид битрейта : Постоянный
Битрейт : 384 Кбит/сек
Каналы : 6 каналов
Расположение каналов : Front: L C R, Side: L R, LFE
Частота : 48,0 КГц
Битовая глубина : 16 бит
Метод сжатия : С потерями
Размер потока : 259 Мбайт (17%)
Выравнивание : Разделение по промежуткам
Продолжительность промежутка : 42 мс. (1,00 видеокадр)
Время предзагрузки промежутка : 500 мс.
Аудио #2
Идентификатор : 2
Формат : AC-3
Формат/Информация : Audio Coding 3
Расширение режима : CM (complete main)
Идентификатор кодека : 2000
Продолжительность : 1 ч. 34 м.
Вид битрейта : Постоянный
Битрейт : 448 Кбит/сек
Каналы : 6 каналов
Расположение каналов : Front: L C R, Side: L R, LFE
Частота : 48,0 КГц
Битовая глубина : 16 бит
Метод сжатия : С потерями
Размер потока : 302 Мбайт (20%)
Выравнивание : Разделение по промежуткам
Продолжительность промежутка : 42 мс. (1,00 видеокадр)
Время предзагрузки промежутка : 500 мс.











Download / Скачать

Хотите скачать бесплатно? Зарегистрируйтесь на сайте (ссылка на регистрацию). Pirat.ca - самый быстрый торрент трекер в рунете!

Как скачивать  ·   Что такое торрент  ·   Рейтинг и ограничения



Последний раз редактировалось: zyyx (2011-11-28 11:33), всего редактировалось 2 раз(а)

Who

Штурман

Пост 27-Ноя-2011 12:51 (спустя 54 минуты)

[Q] 

Давно смотрел, понравился фильм
[Профиль]  [ЛС] 

Пост 27-Ноя-2011 14:08 (спустя 1 час 16 минут)

Топик был перенесен из форума Художественные фильмы (Зарубежное кино) в форум Современное кино (с 2000 г.)

Skinwalker
 

ЭНГЕЛЪС

Морской Волк

Пост 11-Фев-2012 13:40 (спустя 2 месяца 14 дней)

[Q] 

Спасибо.. беспредельно веселое кино..)
[Профиль]  [ЛС] 

jism

Корсар

106

Пост 21-Фев-2012 01:01 (спустя 9 дней)

[Q] 

помогу с раздачей

_________________
- SenileDementia production -
[Профиль]  [ЛС] 

oksanatolm

Шкипер

Пост 21-Сен-2012 23:14 (спустя 7 месяцев)

[Q] 

Хорошая комедия. Есть пару шуток ниже пояса, но немного. В общем фильм стоит посмотреть.
[Профиль]  [ЛС] 

DIMASINO

Шкипер

85

Пост 15-Окт-2012 21:11 (спустя 23 дня)

[Q] 

отдуши поржал

_________________
[Профиль]  [ЛС] 

alexandr.x79

Корсар

826

Пост 08-Янв-2013 13:00 (спустя 2 месяца 23 дня)

[Q] 

[Профиль]  [ЛС] 

I7aTpuoT

Штурман

Пост 08-Янв-2013 22:41 (спустя 9 часов)

[Q] 

ай маладцы!
[Профиль]  [ЛС] 

exelero07

Гроза морей

Пост 15-Апр-2013 00:39 (спустя 3 месяца 6 дней)

[Q] 

Вдоволь посмеялся! Есть конечно шутки ниже пояса, но в целом респект режиссеру.
[Профиль]  [ЛС] 

Klex

Морской Волк

Пост 27-Апр-2013 16:00 (спустя 12 дней)

[Q] 

[Профиль]  [ЛС] 

vovapowers

Корсар

Пост 28-Апр-2013 21:21 (спустя 1 день 5 часов)

[Q] 

отзывы довольно положительные
[Профиль]  [ЛС] 

denaranov

Корсар

Пост 10-Июн-2013 20:25 (спустя 1 месяц 11 дней)

[Q] 

[Профиль]  [ЛС] 

alex denver71

Флибустьер

Пост 14-Июн-2013 15:35 (спустя 3 дня)

[Q] 

bj bj bj ay ay ay ad
[Профиль]  [ЛС] 

saneci

Лоцман

Пост 23-Янв-2014 21:11 (спустя 7 месяцев 9 дней)

[Q] 

Посмотрим, заценим))
Спасибо!!! Раздающему респект!
[Профиль]  [ЛС] 

Ракеta

Штурман

Пост 08-Авг-2014 00:26 (спустя 6 месяцев 15 дней)

[Q] 

Скорость как у черепахи
[Профиль]  [ЛС] 

Vladislav020691

Штурман

Пост 17-Сен-2014 14:35 (спустя 1 месяц 9 дней)

[Q] 

хороший фильмец)
[Профиль]  [ЛС] 

Raven111

Штурман

Пост 21-Сен-2014 21:48 (спустя 4 дня)

[Q] 

Отличный фильм, в стиле Мальчишника:) Спасибо!!!

_________________
Raven.
[Профиль]  [ЛС] 

Scorpion7474

Флибустьер

Пост 25-Сен-2014 14:39 (спустя 3 дня)

[Q] 

Судя по отзывам фильм хорош Автору респект!!! Лови бочку
[Профиль]  [ЛС] 

M4std1e

Корсар

Пост 16-Мар-2015 17:38 (спустя 5 месяцев 21 день)

[Q] 

Спасибо! Поглядим! Фильм должен быть хорошим.
[Профиль]  [ЛС] 

tu6enka

Флибустьер

Пост 03-Апр-2018 22:48 (спустя 3 года)

[Q] 

Фильмец бомба, почти классика
[Профиль]  [ЛС] 

Су-34

Гроза морей

15270

Пост 05-Апр-2018 14:29 (спустя 1 день 15 часов)

[Q] 

822187Фильмец бомба, почти классика
Ты там не взорвался??
[Профиль]  [ЛС] 

TDK

Шкипер

Пост 12-Апр-2018 13:46 (спустя 6 дней)

[Q] 

Спасибо! Супер!
[Профиль]  [ЛС] 

koljan-2008

Флибустьер

10

Пост 10-Июн-2018 19:19 (спустя 1 месяц 28 дней)

[Q] 

Почитал коменты - решил глянуть. Забираю в коллекцию! Лови бочку Автору респект!!!

_________________
Нужно лишь верить в мечту. Искренне верить! И тогда всё получится!
[Профиль]  [ЛС] 

strics007

Штурман

Пост 01-Сен-2018 17:57 (спустя 2 месяца 21 день)

[Q] 

Встаньте на раздачу плиз!=)
[Профиль]  [ЛС] 
Показать сообщения:    
Ответить на тему

Текущее время: Сегодня 13:58

Часовой пояс: GMT + 4



Вы не можете начинать темы
Вы не можете отвечать на сообщения
Вы не можете редактировать свои сообщения
Вы не можете удалять свои сообщения
Вы не можете голосовать в опросах
Вы не можете прикреплять файлы к сообщениям
Вы не можете скачивать файлы

Майнать ▼