ML
     
  Уважаемый Гость!
Вы можете поддержать проект и зарегистрироваться у наших партнеров - онлайн-стратегия MyLands. При регистрации в игре Вы получите код, который сможете активировать после регистрации на pirat.ca и получить 1000 дублонов.

Ваш код:
ec32bfde4ea07ed92e56ea6cdf0bf6ee7369dd10
 
     

Лабиринты / Dedales (Рене Манзор / Rene Manzor) [2003 г., Триллер, драма, криминал, детектив, DVDRip] (DVO)

Ответить на тему
 
Автор
Сообщение

Пост 27-Ноя-2011 19:08

[Q] 

altyn

Лоцман

Лабиринты / Dedales
Год выпуска: 2003
Мировая премьера: 17 мая 2003
Производство: Франция, Бельгия
Жанр: Триллер, драма, криминал, детектив
Продолжительность: 01:35:01
Перевод: Профессиональный (двухголосый, закадровый)
Оригинальный аудиопоток: Отсутствует
Режиссер: Рене Манзор / Rene Manzor
В ролях: Ламбер Вильсон, Сильви Тестю, Фредерик Дифенталь, Мишель Дюшоссуа, Эдуард Монтут, Томер Сислей
Описание: Парижский детектив по имени Матиас расследует серию жестоких и загадочных убийств, потрясших весь город. На месте преступления не остается ни трупов, ни свидетелей, только кровь жертв. Матиаса преследуют странные видения, необъяснимым образом связанные с обстоятельствами совершенных убийств. Вскоре главной подозреваемой становится молодая девушка, изображающая из себя душевнобольную. Для вынесения обвинительного приговора, судье необходимо получить заключение о ее вменяемости. С девушкой начинает работать психиатр Бреннак, который погружается в темные лабиринты ее сознания, где ему предстоит встреча с минотавром, терпеливо поджидающим новую жертву.
IMDB, КиноПоиск
Источник/Качество: DVDRip
Формат: AVI
Видео кодек: DivX
Аудио кодек: AC3
Видео: Video: 704x368 (1.91:1), 25 fps, DivX Codec 6.8.5/6.9.1 ~1857 kbps avg, 0.29 bit/pixel
Аудио: Audio: 48 kHz, AC3 Dolby Digital, 2/0 (L,R) ch, ~192 kbps
Субтитры: Not Present
Общее
Полное имя : Labirinti[pirat.ca].avi
Формат : AVI
Формат/Информация : Audio Video Interleave
Размер файла : 1,37 Гбайт
Продолжительность : 1 ч. 35 м.
Общий поток : 2059 Кбит/сек
Программа кодирования : VirtualDubMod 1.5.10.2 (build 2540/release)
Библиотека кодирования : VirtualDubMod build 2540/release
Видео
Идентификатор : 0
Формат : MPEG-4 Visual
Параметр BVOP формата : 1
Параметр QPel формата : Нет
Параметр GMC формата : Без точки перехода
Параметр матрицы формата : Default (H.263)
Режим смешивания : Сжатый битовый поток
Идентификатор кодека : DX50
Идентификатор кодека/Подсказка : DivX 5
Продолжительность : 1 ч. 35 м.
Битрейт : 1857 Кбит/сек
Ширина : 704 пикселя
Высота : 368 пикселей
Соотношение сторон : 1,913
Частота кадров : 25,000 кадров/сек
Цветовое пространство : YUV
Субдискретизация насыщенности : 4:2:0
Битовая глубина : 8 бит
Тип развёртки : Прогрессивная
Метод сжатия : С потерями
Бит/(Пиксели*Кадры) : 0.287
Размер потока : 1,23 Гбайт (90%)
Библиотека кодирования : DivX 6.8.5 (UTC 2009-08-20)
Аудио
Идентификатор : 1
Формат : AC-3
Формат/Информация : Audio Coding 3
Расширение режима : CM (complete main)
Идентификатор кодека : 2000
Продолжительность : 1 ч. 35 м.
Вид битрейта : Постоянный
Битрейт : 192 Кбит/сек
Каналы : 2 канала
Расположение каналов : Front: L R
Частота : 48,0 КГц
Битовая глубина : 16 бит
Метод сжатия : С потерями
Размер потока : 130 Мбайт (9%)
Выравнивание : Разделение по промежуткам
Продолжительность промежутка : 40 мс. (1,00 видеокадр)
Время предзагрузки промежутка : 500 мс.

Download / Скачать

Хотите скачать бесплатно? Зарегистрируйтесь на сайте (ссылка на регистрацию). Pirat.ca - самый быстрый торрент трекер в рунете!

Как скачивать  ·   Что такое торрент  ·   Рейтинг и ограничения

Пост 27-Ноя-2011 19:40 (спустя 31 минута)

Топик был перенесен из форума Художественные фильмы (Зарубежное кино) в форум Современное кино (с 2000 г.)

Skinwalker
 

altyn ®

Лоцман

66

Пост 27-Ноя-2011 19:43 (спустя 34 минуты)

[Q] 

IMHO отличный фильм. Французы вообще радуют правильными фильмами.

_________________
* Origin: ...паясничать (с) (2:5020/570)
[Профиль]  [ЛС] 

jism

Корсар

103

Пост 21-Фев-2012 00:59 (спустя 2 месяца 23 дня)

[Q] 

помогу с раздачей

_________________
- SenileDementia production -
[Профиль]  [ЛС] 

Wolf111

57470

Пост 24-Дек-2012 08:20 (спустя 10 месяцев 3 дня)

[Q] 

Помогу с раздачей
[Профиль]  [ЛС] 

Igrix

Шкипер

Пост 09-Янв-2014 20:24 (спустя 1 год)

[Q] 

не качает SOS!!!
[Профиль]  [ЛС] 

ktest0

Корсар

33

Пост 22-Мар-2015 14:37 (спустя 1 год 2 месяца)

[Q] 

Кому надо, тот качает. ag
[Профиль]  [ЛС] 

Руфатик

Штурман

Пост 23-Июл-2015 17:35 (спустя 4 месяца 1 день)

[Q] 

раздайте пожалуйста
[Профиль]  [ЛС] 
Показать сообщения:    
Ответить на тему

Текущее время: Сегодня 06:13

Часовой пояс: GMT + 4



Вы не можете начинать темы
Вы не можете отвечать на сообщения
Вы не можете редактировать свои сообщения
Вы не можете удалять свои сообщения
Вы не можете голосовать в опросах
Вы не можете прикреплять файлы к сообщениям
Вы не можете скачивать файлы

▼ Вниз