Уважаемый Гость!
Вы можете поддержать проект и зарегистрироваться у наших партнеров - онлайн-стратегия MyLands. При регистрации в игре Вы получите код, который сможете активировать после регистрации на pirat.ca и получить 1000 дублонов.

Ваш код:
b8dd84d661ecb7a6c4c5efbb23d23495cec01745
 
     

Драйв / Drive (Николас Виндинг Рёфн / Nicolas Winding Refn) [2011 г., боевик, триллер, драма, криминал, DVDRip] (Dub) [internal release]

Ответить на тему
 
Автор
Сообщение

Пост 27-Ноя-2011 19:17

[Q] 

zyyx

--Драйв / Drive
«Some Heroes Are Real»
-- Год выпуска: 2011
Мировая премьера: 20 мая 2011
Российская премьера: 3 ноября 2011, «UPI»
Дата выхода DVD: 29 ноября 2011, «Парадиз Видео»
Производство: США
Жанр: боевик, триллер, драма, криминал
Продолжительность: 01:36:41
Перевод: Профессиональный (полное дублирование) [Лицензия]
Режиссер: Николас Виндинг Рёфн / Nicolas Winding Refn
В ролях: Райан Гослинг, Кэри Маллиган, Брайан Крэнстон, Альберт Брукс, Оскар Айзек, Кристина Хендрикс, Рон Перлман, Каден Леос, Джефф Вульф, Джеймс Бибери и др.
Описание: Великолепный гонщик — при свете дня он выполняет каскадерские трюки на съёмочных площадках Голливуда, а по ночам ведет рискованную игру. Но один опасный контракт — и за его жизнь назначена награда. Теперь, чтобы остаться в живых и спасти свою очаровательную соседку, он должен делать то, что умеет лучше всего — виртуозно уходить от погони…
-Сэмпл | IMDB | КиноПоиск-Источник/Качество: DVDRip
Формат: AVI
Видео кодек: XviD
Аудио кодек: AC3
Видео: 720x304 (2.37:1), 25 fps, XviD build 50, 2774 kbps avg, 0.51 bit/pixel
Аудио: 48 kHz, AC3 Dolby Digital, 3/2 (L,C,R,l,r) + LFE ch, 384 kbps
Общее
Полное имя : D:\Drive.2011.DVDRip.XviD.JRG.avi
Формат : AVI
Формат/Информация : Audio Video Interleave
Профиль формата : OpenDML
Размер файла : 2,14 Гбайт
Продолжительность : 1 ч. 36 м.
Общий поток : 3165 Кбит/сек
Программа кодирования : VirtualDubMod 1.5.10.3 | www.virtualdub-fr.org || (build 2550/release)
Библиотека кодирования : VirtualDubMod build 2550/release
Видео
Идентификатор : 0
Формат : MPEG-4 Visual
Профиль формата : Advanced [email protected]
Параметр BVOP формата : 1
Параметр QPel формата : Нет
Параметр GMC формата : Без точки перехода
Параметр матрицы формата : Default (MPEG)
Идентификатор кодека : XVID
Идентификатор кодека/Подсказка : XviD
Продолжительность : 1 ч. 36 м.
Битрейт : 2769 Кбит/сек
Ширина : 720 пикселей
Высота : 304 пикселя
Соотношение сторон : 2,35:1
Частота кадров : 25,000 кадров/сек
Цветовое пространство : YUV
Субдискретизация насыщенности : 4:2:0
Битовая глубина : 8 бит
Тип развёртки : Прогрессивная
Метод сжатия : С потерями
Бит/(Пиксели*Кадры) : 0.506
Размер потока : 1,87 Гбайт (87%)
Библиотека кодирования : XviD 1.2.1 (UTC 2008-12-04)
Аудио
Идентификатор : 1
Формат : AC-3
Формат/Информация : Audio Coding 3
Расширение режима : CM (complete main)
Идентификатор кодека : 2000
Продолжительность : 1 ч. 36 м.
Вид битрейта : Постоянный
Битрейт : 384 Кбит/сек
Каналы : 6 каналов
Расположение каналов : Front: L C R, Side: L R, LFE
Частота : 48,0 КГц
Битовая глубина : 16 бит
Метод сжатия : С потерями
Размер потока : 266 Мбайт (12%)
Выравнивание : Разделение по промежуткам
Продолжительность промежутка : 40 мс. (1,00 видеокадр)
Время предзагрузки промежутка : 500 мс.










Download / Скачать

Хотите скачать бесплатно? Зарегистрируйтесь на сайте (ссылка на регистрацию). Pirat.ca - самый быстрый торрент трекер в рунете!

Как скачивать  ·   Что такое торрент  ·   Рейтинг и ограничения



Последний раз редактировалось: zyyx (2011-12-05 14:58), всего редактировалось 1 раз

Пост 27-Ноя-2011 19:31 (спустя 13 минут)

Топик был перенесен из форума Художественные фильмы (Зарубежное кино) в форум Новинки (HD|DVD|BD|TV|SAT|PDTV| - Rips)

Skinwalker
 

nord66

Морской Волк

Пост 27-Ноя-2011 20:25 (спустя 1 час 8 минут)

[Q] 

Первый нах спс автору
[Профиль]  [ЛС] 

WitFed

Морской Волк

Пост 05-Дек-2011 10:20 (спустя 7 дней)

[Q] 

Спасибо!

_________________
[Профиль]  [ЛС] 

klan69

Пост 06-Дек-2011 14:13 (спустя 1 день 3 часа)

[Q] 

Посмотрел с удовольствием.
[Профиль]  [ЛС] 

aleksandrwww

Морской Волк

Пост 09-Дек-2011 18:05 (спустя 3 дня)

[Q] 

За ценим,раздающему респект!

_________________
Пират по призванию
http://www.speedtest.net/result/1954155246.png
[Профиль]  [ЛС] 

zoliun

Лоцман

Пост 09-Дек-2011 21:41 (спустя 3 часа)

[Q] 

фильм даже очень не чего ,конечно не про гонки и не про красивые дорогие тачки! Оценка по 10-ти бальной шкале можно поставить 7!!!
[Профиль]  [ЛС] 

mishasmith.sx4

Шкипер

Пост 13-Дек-2011 10:45 (спустя 3 дня)

[Q] 

...спасибо....
[Профиль]  [ЛС] 

Pippo48

Флибустьер

Пост 14-Дек-2011 21:10 (спустя 1 день 10 часов)

[Q] 

Спасибо, фильм понравился. Конечно не форсаж, но в напряжении держал.
[Профиль]  [ЛС] 

катюшка

Пост 18-Авг-2012 18:56 (спустя 8 месяцев 3 дня)

[Q] 

af классный фильм.
[Профиль]  [ЛС] 

BraionServ1

Гроза морей

Пост 09-Окт-2015 00:34 (спустя 3 года 1 месяц)

[Q] 

Чего-то Гослинг лажает не слабо в Перелом же очень даже не слабо сыграл, а кризис среднего возраста пришел, последние никакие роли
[Профиль]  [ЛС] 

ГИППАРРД

Корсар

2

Пост 14-Окт-2015 11:15 (спустя 5 дней)

[Q] 

Интересно псмотреть что за новый фильм ????
[Профиль]  [ЛС] 

kucha11

Корсар

Пост 03-Авг-2016 09:47 (спустя 9 месяцев 19 дней)

[Q] 

Спасибо!!!
[Профиль]  [ЛС] 

nitro1985

Корсар

Пост 14-Ноя-2016 16:55 (спустя 3 месяца 11 дней)

[Q] 

отлично!!!
Супер!
[Профиль]  [ЛС] 

dl22

Морской Волк

Пост 27-Ноя-2016 15:51 (спустя 12 дней)

[Q] 

!COOL! норм, понравился!
[Профиль]  [ЛС] 
Показать сообщения:    
Ответить на тему

Текущее время: Сегодня 12:04

Часовой пояс: GMT + 4



Вы не можете начинать темы
Вы не можете отвечать на сообщения
Вы не можете редактировать свои сообщения
Вы не можете удалять свои сообщения
Вы не можете голосовать в опросах
Вы не можете прикреплять файлы к сообщениям
Вы не можете скачивать файлы

▼ Вниз