ML
     
  Уважаемый Гость!
Вы можете поддержать проект и зарегистрироваться у наших партнеров - онлайн-стратегия MyLands. При регистрации в игре Вы получите код, который сможете активировать после регистрации на pirat.ca и получить 1000 дублонов.

Ваш код:
8de53b2f244b5f2548f7aa649e07fa1be6dc6759
 
     

(Heavy Metal) Jorn - Dio - 2010, FLAC (image+.cue), lossless

Ответить на тему
 
Автор
Сообщение

Пост 27-Ноя-2011 21:16

[Q] 

sergej644

-Jorn - Dio- Северный Бог Метала. Лидер ренессанса классического хард-рока в лучшем его проявлении. Один из наиболее успешных и востребованных певцов современности, чей вокальный талант завоевал ему место среди величайших гигантов истории рока. Это Йорн Ланде и сейчас он приложил все свои способности для того, чтобы воздать почести музыкальному наследию Ронни Джеймса Дио, и записал альбом с соответствующим названием "Dio", который вышел на Frontiers Records (в Европе – 2 июля, в США – 27 июля).
Страна: Norway
Страна-производитель диска: Japan
Лейбл: Marguee Inc.
Номер по каталогу: MICP - 10931
Жанр: Heavy Metal
Год выпуска: 2010
Формат: FLAC
Тип рипа: Image+.cue
Битрейт аудио: lossless
Продолжительность: 1:13:08
- -01. Song For Ronnie James (8:08)
02. Invisible (5:23)
03. Shame On The Night (5:21)
04. Push (4:00)
05. Stand Up And Shout (3:23)
06. Don't Talk To Strangers (4:55)
07. Lord Of The Last Day (4:50)
08. Night People (4:24)
09. Sacred Heart (6:26)
10. Sunset Superman (4:56)
11. Lonely Is The Word / Letters From Earth (2010 Version) (5:28)
12. Kill The King (4:03)
13. Straight Through The Heart (Live) (5:05)
14. Egypt (The Chains Are On) (Bonus Track) (6:46)
- -
Exact Audio Copy V0.99 prebeta 5 from 4. May 2009
Отчёт EAC об извлечении, выполненном 13. октября 2010, 9:24
Jorn / Dio (Japan)
Дисковод: ASUS DRW-1814BL Adapter: 4 ID: 1
Режим чтения : Достоверность
Использование точного потока : Да
Отключение кэша аудио : Да
Использование указателей C2 : Нет
Коррекция смещения при чтении : 6
Способность читать области Lead-in и Lead-out : Нет
Заполнение пропущенных сэмплов тишиной : Да
Удаление блоков с тишиной в начале и конце : Нет
При вычислениях CRC использовались нулевые сэмплы : Да
Интерфейс : Установленный внешний ASPI-интерфейс
Выходной формат : Внутренние WAV-операции
Формат сэмплов : 44.100 Гц; 16 бит; стерео
Смещение при сжатии : 0
TOC извлечённого CD
Трек | Старт | Длительность | Начальный сектор | Конечный сектор
---------------------------------------------------------------------
1 | 0:00.00 | 8:07.72 | 0 | 36596
2 | 8:07.72 | 5:23.26 | 36597 | 60847
3 | 13:31.23 | 5:21.16 | 60848 | 84938
4 | 18:52.39 | 4:00.29 | 84939 | 102967
5 | 22:52.68 | 3:22.54 | 102968 | 118171
6 | 26:15.47 | 4:55.13 | 118172 | 140309
7 | 31:10.60 | 4:50.08 | 140310 | 162067
8 | 36:00.68 | 4:24.26 | 162068 | 181893
9 | 40:25.19 | 6:26.02 | 181894 | 210845
10 | 46:51.21 | 4:55.39 | 210846 | 233009
11 | 51:46.60 | 5:27.39 | 233010 | 257573
12 | 57:14.24 | 4:03.27 | 257574 | 275825
13 | 61:17.51 | 5:04.41 | 275826 | 298666
14 | 66:22.17 | 6:45.38 | 298667 | 329079
Характеристики диапазона извлечения и сообщения об ошибках
Выбранный диапазон
Имя файла G:\Program files\Рипаные файлы\Jorn - Dio (Japan)\Jorn - Dio (Japan).wav
Пиковый уровень 100.0 %
Качество диапазона 100.0 %
CRC копии 75F849E9
Копирование... OK
Ошибок не произошло
Конец отчёта
REM GENRE Heavy Metal
REM DATE 2010
REM DISCID D611230E
REM COMMENT ExactAudioCopy v0.99pb5
PERFORMER "Jorn"
TITLE "Dio [MARQUEE / MICP-10931 / JAPAN]"
FILE "Jorn - Dio (Japan).flac" WAVE
TRACK 01 AUDIO
TITLE "Song For Ronnie James"
ISRC @Rg271000269
INDEX 01 00:00:00
TRACK 02 AUDIO
TITLE "Invisible"
ISRC @Rg271000270
INDEX 00 08:06:58
INDEX 01 08:07:72
TRACK 03 AUDIO
TITLE "Shame On The Night"
ISRC @Rg271000271
INDEX 00 13:27:44
INDEX 01 13:31:23
TRACK 04 AUDIO
TITLE "Push"
ISRC @Rg271000272
INDEX 01 18:52:39
TRACK 05 AUDIO
TITLE "Stand Up And Shout"
ISRC @Rg271000273
INDEX 00 22:51:61
INDEX 01 22:52:68
TRACK 06 AUDIO
TITLE "Don't Talk To Strangers"
ISRC @Rg271000274
INDEX 00 26:14:61
INDEX 01 26:15:47
TRACK 07 AUDIO
TITLE "Lord Of The Last Day"
ISRC @Rg271000274
INDEX 01 31:10:60
TRACK 08 AUDIO
TITLE "Night People"
ISRC @Rg271000276
INDEX 01 36:00:68
TRACK 09 AUDIO
TITLE "Sacred Heart"
ISRC @Rg271000277
INDEX 01 40:25:19
TRACK 10 AUDIO
TITLE "Sunset Superman"
ISRC @Rg271000278
INDEX 00 46:48:52
INDEX 01 46:51:21
TRACK 11 AUDIO
TITLE "Lonely Is The Word / Letters From Earth (2010 Version)"
ISRC @Rg271000279
INDEX 00 51:44:60
INDEX 01 51:46:60
TRACK 12 AUDIO
TITLE "Kill The King"
ISRC @Rg271000280
INDEX 00 57:12:25
INDEX 01 57:14:24
TRACK 13 AUDIO
TITLE "Straight Through The Heart (Live)"
ISRC @Rg271000281
INDEX 00 61:16:56
INDEX 01 61:17:51
TRACK 14 AUDIO
TITLE "Egypt (The Chains Are On) (Bonus Track)"
ISRC @Rg271000282
INDEX 00 66:18:04
INDEX 01 66:22:17
AUDIOCHECKER v2.0 beta (build 457) - by Dester - [email protected]
~~~~~~~~~~~~~~~~~~~~~~~~~~~~~~~~~~
-=== НЕ РЕДАКТИРУЙТЕ ЭТОТ ФАЙЛ! ===-
Путь: ...\2010 - Dio [AVALON MICP-10931 JAPAN]
1 -=- Jorn - Dio (Japan).flac -=- CDDA (99%)
209298932
- -
- - -
Оригинальный релизер - wings71 (mOole.Ru), за что ему ОГРОМНОЕ СПАСИБО!!!!
-
Download / Скачать

Хотите скачать бесплатно? Зарегистрируйтесь на сайте (ссылка на регистрацию). Pirat.ca - самый быстрый торрент трекер в рунете!

Как скачивать  ·   Что такое торрент  ·   Рейтинг и ограничения

sergej644 ®

15626

Пост 28-Ноя-2011 19:56 (спустя 22 часа)

[Q] 

Моя раздача в MP3:Нажми

_________________
[Профиль]  [ЛС] 

FreshMeat

Морской Волк

Пост 06-Мар-2014 19:07 (спустя 2 года 3 месяца)

[Q] 

спасибо) Супер!

_________________
[Профиль]  [ЛС] 

Remed_70

Штурман

287

Пост 10-Мар-2014 11:59 (спустя 3 дня)

[Q] 

Спасибо, лови бочку !!! Лови бочку
[Профиль]  [ЛС] 

Zhmen80

Морской Волк

Пост 04-Апр-2014 01:24 (спустя 24 дня)

[Q] 

пойдёт музня Спасибо!!!
[Профиль]  [ЛС] 

kucha11

Корсар

Пост 18-Июн-2015 00:29 (спустя 1 год 2 месяца)

[Q] 

Раздавать будем или как?
[Профиль]  [ЛС] 

italiano711

Гроза морей

40

Пост 03-Фев-2016 22:13 (спустя 7 месяцев 15 дней)

[Q] 

Огромное спасибо!
[Профиль]  [ЛС] 

kucha11

Корсар

Пост 03-Авг-2016 09:51 (спустя 5 месяцев 28 дней)

[Q] 

нормуль
Добавлено спустя 1 минута 34 секунды:
Спасибо!!!
[Профиль]  [ЛС] 

BilG

Морской Волк

Пост 31-Мар-2017 14:32 (спустя 7 месяцев 28 дней)

[Q] 

Благодарю за труд!

_________________
[Профиль]  [ЛС] 
Показать сообщения:    
Ответить на тему

Текущее время: Сегодня 10:44

Часовой пояс: GMT + 4



Вы не можете начинать темы
Вы не можете отвечать на сообщения
Вы не можете редактировать свои сообщения
Вы не можете удалять свои сообщения
Вы не можете голосовать в опросах
Вы не можете прикреплять файлы к сообщениям
Вы не можете скачивать файлы

▼ Вниз