Уважаемый Гость!
Вы можете поддержать проект и зарегистрироваться у наших партнеров - онлайн-стратегия MyLands. При регистрации в игре Вы получите код, который сможете активировать после регистрации на pirat.ca и получить 1000 дублонов.

Ваш код:
8ee63963a1af4b61b17de78cb16f5350ca06c926
 
     

Добро пожаловать, или Соседям вход воспрещен / Deck the Halls (Джон Уайтселл / John Whitesell) [2006 г., комедия, семейный, DVDRip] (Dub)

Ответить на тему
 
Автор
Сообщение

Пост 01-Дек-2011 21:52

[Q] 

erchine

Добро пожаловать, или Соседям вход воспрещен / Deck the Halls
Год выпуска: 2006
Мировая премьера: 22 ноября 2006
Производство: США
Жанр: комедия, семейный
Продолжительность: 1:29:05
Перевод: Профессиональный (полное дублирование)
Режиссер: Джон Уайтселл / John Whitesell
В ролях: Дэнни ДеВито, Мэттью Бродерик, Кристин Дэвис, Кристин Ченоуэт, Алиа Шокат, Дилан Блу, Сабрина Элдридж, Келли Элдридж, Хорхе Гарсиа, Фред Армизен
Описание: В маленьком североамериканском городке в канун Рождества впору объявлять военное положение: один из жителей решил украсить свой дом иллюминацией, которую было бы можно видеть из космоса. Это не пришлось по душе сельчанам и особенно его ближайшему соседу. Боевые действия готовы разрушить город. Однако в конце концов противоборствующие стороны открывают для себя истинную ценность Рождества.
IMDB, КиноПоиск
Источник/Качество: DVDRip
Формат: AVI
Видео кодек: XviD
Аудио кодек: AC3
Видео: 704x368, 25.00fps, 1806 Kbps 0.279 b/px
Аудио: Dolby AC3 48000Hz 6ch 384kbps
General
Complete name : F:\Dobro.pozhalovat.ili.sosedjam.vhod.vosprewen.2006.XviD.DVDRip.avi
Format : AVI
Format/Info : Audio Video Interleave
File size : 1.37 GiB
Duration : 1h 29mn
Overall bit rate : 2 200 Kbps
Writing application : VirtualDubMod 1.5.10.2 (build 2540/release)
Video
ID : 0
Format : MPEG-4 Visual
Format profile : Advanced [email protected]
Format settings, BVOP : Yes
Format settings, QPel : No
Format settings, GMC : No warppoints
Format settings, Matrix : Default (MPEG)
Codec ID : XVID
Codec ID/Hint : XviD
Duration : 1h 29mn
Bit rate : 1 806 Kbps
Width : 704 pixels
Height : 368 pixels
Display aspect ratio : 1.913
Frame rate : 25.000 fps
Resolution : 8 bits
Colorimetry : 4:2:0
Scan type : Progressive
Bits/(Pixel*Frame) : 0.279
Stream size : 1.12 GiB (82%)
Writing library : XviD 1.2.1 (UTC 2008-12-04)
Audio
ID : 1
Format : AC-3
Format/Info : Audio Coding 3
Format_Settings_ModeExtension : CM (complete main)
Codec ID : 2000
Duration : 1h 29mn
Bit rate mode : Constant
Bit rate : 384 Kbps
Channel(s) : 6 channels
Channel positions : Front: L C R, Side: L R, LFE
Sampling rate : 48.0 KHz
Stream size : 245 MiB (17%)
Alignment : Aligned on interleaves
Interleave, duration : 40 ms (1.00 video frame)
Interleave, preload duration : 512 ms



Download / Скачать

Хотите скачать бесплатно? Зарегистрируйтесь на сайте (ссылка на регистрацию). Pirat.ca - самый быстрый торрент трекер в рунете!

Как скачивать  ·   Что такое торрент  ·   Рейтинг и ограничения

Пост 01-Дек-2011 22:24 (спустя 32 минуты)

Топик был перенесен из форума Художественные фильмы (Зарубежное кино) в форум Современное кино (с 2000 г.)

Skinwalker
 

LitleBear

Лоцман

Пост 04-Дек-2011 14:13 (спустя 2 дня 16 часов)

[Q] 

Скачали 9 раз,и ни 1го отклика как фильм.
[Профиль]  [ЛС] 

alexandr.x79

Корсар

819

Пост 16-Янв-2012 18:03 (спустя 1 месяц 12 дней)

[Q] 

Спасибо.
[Профиль]  [ЛС] 

NewTor

Гроза морей

Пост 18-Янв-2012 00:46 (спустя 1 день 6 часов)

[Q] 

Сказка! Чуть челюсть не вывихнул, зевая...
[Профиль]  [ЛС] 

CHARLI2236

1186

Пост 10-Апр-2012 21:45 (спустя 2 месяца 23 дня)

[Q] 

спасибо

_________________
[Профиль]  [ЛС] 

Alexe10

Гроза морей

36

Пост 21-Окт-2014 07:59 (спустя 2 года 6 месяцев)

[Q] 

На любителя
[Профиль]  [ЛС] 
Показать сообщения:    
Ответить на тему

Текущее время: Сегодня 07:08

Часовой пояс: GMT + 4



Вы не можете начинать темы
Вы не можете отвечать на сообщения
Вы не можете редактировать свои сообщения
Вы не можете удалять свои сообщения
Вы не можете голосовать в опросах
Вы не можете прикреплять файлы к сообщениям
Вы не можете скачивать файлы

▼ Вниз