Ментовские войны 2 Сезон: 2 Серии: 1-12 из 12 (Егор Абросимов) [2005 г., криминал, DVD9](Original)

Ответить на тему
 
Автор
Сообщение

Пост 02-Дек-2011 05:45

[Q] 

zyyx

--Ментовские войны 2
Сезон: 2 Серии: 1-12 из 12
-- Год выпуска: 2005
Мировая премьера: 6 февраля 2006
Производство: Россия
Жанр: криминал
Продолжительность: 00:45:00 серия
Перевод: Не требуется
Режиссер: Егор Абросимов
В ролях: Александр Устюгов, Алексей Завьялов, Егор Абросимов, Татьяна Бондаренко, Дмитрий Быковский-Ромашов, Юрий Елагин, Роман Громадский, Иосиф Кошелевич, Сергей Кудрявцев, Сергей Кузнецов
Описание: Майор Шилов вновь оказывается в самой гуще событий — двуличные коллеги, влиятельные чиновники, криминальные авторитеты. Теперь у Шилова новый начальник, даже два. Однако для старой команды его статус «шефа» нисколько не изменился, они, как и раньше, считают Романа первымс реди равных, отдавая долг его профессионализму.
Дел по-прежнему хватает. И, хотя внутренние распри в системе МВД осложняют жизнь отдела Шилова, новые происшествия, чаще всего трагические, требуют немедленных, подчас, единственно верных действий, ведь это — настоящая мужская работа. На войне, как на войне…-Сэмпл | КиноПоиск-Источник/Качество: DVD9
Формат: DVD Video
Видео кодек: MPEG2
Аудио кодек: AC3
Видео: PAL 4:3 (750x576) CBR, 25,000 кадров/сек, 5594 Кбит/сек
Аудио: 48,0 КГц, 2 канала, 256 Кбит/сек
Общее
Полное имя : D:\pirat.ca\Ментовские войны 2\VIDEO_TS\VTS_01_1.VOB
Формат : MPEG-PS
Размер файла : 1024 Мбайт
Продолжительность : 23 м.
Режим общего битрейта : Переменный
Общий поток : 5969 Кбит/сек
Видео
Идентификатор : 224 (0xE0)
Формат : MPEG Video
Версия формата : Version 2
Профиль формата : Main@Main
Параметр BVOP формата : Да
Параметр матрицы формата : Выборочная
Параметр GOP формата : M=3, N=12
Продолжительность : 23 м.
Вид битрейта : Переменный
Битрейт : 5594 Кбит/сек
Максимальный битрейт : 9500 Кбит/сек
Ширина : 352 пикселя
Высота : 576 пикселей
Соотношение сторон : 4:3
Частота кадров : 25,000 кадров/сек
Стандарт вещания : PAL
Цветовое пространство : YUV
Субдискретизация насыщенности : 4:2:0
Битовая глубина : 8 бит
Тип развёртки : Чересстрочная
Порядок развёртки : Верхнее поле первое
Метод сжатия : С потерями
Бит/(Пиксели*Кадры) : 1.104
Размер потока : 960 Мбайт (94%)
Аудио
Идентификатор : 189 (0xBD)-128 (0x80)
Формат : AC-3
Формат/Информация : Audio Coding 3
Расширение режима : CM (complete main)
Режим смешивания : DVD-Video
Продолжительность : 23 м.
Вид битрейта : Постоянный
Битрейт : 256 Кбит/сек
Каналы : 2 канала
Расположение каналов : Front: L R
Частота : 48,0 КГц
Битовая глубина : 16 бит
Метод сжатия : С потерями
Задержка видео : -80 мс.
Размер потока : 43,9 Мбайт (4%)
Меню


Download / Скачать

Хотите скачать бесплатно? Зарегистрируйтесь на сайте (ссылка на регистрацию). Pirat.ca - самый быстрый торрент трекер в рунете!

Как скачивать  ·   Что такое торрент  ·   Рейтинг и ограничения



Последний раз редактировалось: zyyx (2011-12-04 20:22), всего редактировалось 1 раз

Пост 04-Дек-2011 20:38 (спустя 2 дня 14 часов)

Топик был перенесен из форума Сериалы в форум Криминал/Детектив

gEmOkPaT
 
Показать сообщения:    
Ответить на тему

Текущее время: Сегодня 01:05

Часовой пояс: GMT + 4



Вы не можете начинать темы
Вы не можете отвечать на сообщения
Вы не можете редактировать свои сообщения
Вы не можете удалять свои сообщения
Вы не можете голосовать в опросах
Вы не можете прикреплять файлы к сообщениям
Вы не можете скачивать файлы

Майнать ▼