Ментовские войны 3 Сезон: 3 Серии: 1-12 из 12 (Егор Абросимов) [2006 г., боевик, драма, криминал, 2xDVD5](Original)

Ответить на тему
 
Автор
Сообщение

Пост 02-Дек-2011 05:45

[Q] 

zyyx

--Ментовские войны 3
Сезон: 3 Серии: 1-12 из 12
-- Год выпуска: 2006
Мировая премьера: 14 мая 2007
Производство: Россия
Жанр: боевик, драма, криминал
Продолжительность: 00:45:00 серия
Перевод: Не требуется
Режиссер: Егор Абросимов
В ролях: Александр Устюгов, Алексей Завьялов, Александр Лисицин, Дмитрий Быковский-Ромашов, Всеволод Цурило, Александр Орловский, Сергей Кузнецов, Леонид Осокин, Егор Абросимов, Николай Буров
Описание: Главные герои сериала — сотрудники правоохранительных органов Шилов и Арнаутов — настоящие профессионалы. В любой момент они готовы пожертвовать личной безопасностью и встать на стражу общественного спокойствия и правопорядка.
Город захлестнула война нападений на инкассаторов. Почти все они сопровождаются убийствами. Становится ясно, что действует хорошо организованная банда. За преступниками охотятся милиция, спецслужбы, «братки», криминальные авторитеты, Бюро репортерских расследований в лице очаровательной журналистки Лизы и специалист по китайской мафии Алексей Берестов. В этом головокружительном водовороте погонь, перестрелок, уличных драк, автомобильных аварий наши герои в очередной раз демонстрируют свои лучшие качества — выдержку, мужество, верность долгу.-КиноПоиск-Источник/Качество: DVD5
Формат: DVD Video
Видео кодек: MPEG2
Аудио кодек: AC3
Видео: NTSC 4:3 (625x480), 29,970 кадров/сек, 6527 Кбит/сек
Аудио: 48,0 КГц, 2 канала, 256 Кбит/сек
Общее
Полное имя : F:\pirat.ca\Ментовские войны 3\Disk 1\VIDEO_TS\VTS_01_1.VOB
Формат : MPEG-PS
Размер файла : 1024 Мбайт
Продолжительность : 20 м.
Режим общего битрейта : Переменный
Общий поток : 6920 Кбит/сек
Видео
Идентификатор : 224 (0xE0)
Формат : MPEG Video
Версия формата : Version 2
Профиль формата : Main@Main
Параметр BVOP формата : Да
Параметр матрицы формата : Выборочная
Параметр GOP формата : M=3, N=15
Продолжительность : 20 м.
Вид битрейта : Переменный
Битрейт : 6527 Кбит/сек
Максимальный битрейт : 9500 Кбит/сек
Ширина : 352 пикселя
Высота : 480 пикселей
Соотношение сторон : 4:3
Частота кадров : 29,970 кадров/сек
Стандарт вещания : NTSC
Цветовое пространство : YUV
Субдискретизация насыщенности : 4:2:0
Битовая глубина : 8 бит
Тип развёртки : Чересстрочная
Порядок развёртки : Верхнее поле первое
Метод сжатия : С потерями
Бит/(Пиксели*Кадры) : 1.289
Размер потока : 966 Мбайт (94%)
Аудио
Идентификатор : 189 (0xBD)-128 (0x80)
Формат : AC-3
Формат/Информация : Audio Coding 3
Расширение режима : CM (complete main)
Режим смешивания : DVD-Video
Продолжительность : 20 м.
Вид битрейта : Постоянный
Битрейт : 256 Кбит/сек
Каналы : 2 канала
Расположение каналов : Front: L R
Частота : 48,0 КГц
Битовая глубина : 16 бит
Метод сжатия : С потерями
Задержка видео : -66 мс.
Размер потока : 37,9 Мбайт (4%)
Меню


Download / Скачать

Хотите скачать бесплатно? Зарегистрируйтесь на сайте (ссылка на регистрацию). Pirat.ca - самый быстрый торрент трекер в рунете!

Как скачивать  ·   Что такое торрент  ·   Рейтинг и ограничения

Пост 04-Дек-2011 20:37 (спустя 2 дня 14 часов)

Топик был перенесен из форума Сериалы в форум Криминал/Детектив

gEmOkPaT
 
Показать сообщения:    
Ответить на тему

Текущее время: Сегодня 01:00

Часовой пояс: GMT + 4



Вы не можете начинать темы
Вы не можете отвечать на сообщения
Вы не можете редактировать свои сообщения
Вы не можете удалять свои сообщения
Вы не можете голосовать в опросах
Вы не можете прикреплять файлы к сообщениям
Вы не можете скачивать файлы

Майнать ▼