Ментовские войны 4 Сезон: 4 Серии: 1-8 из 8 (Егор Абросимов) [2007 г., боевик, драма, криминал, DVD9]

Ответить на тему
 
Автор
Сообщение

Пост 02-Дек-2011 05:47

[Q] 

zyyx

--Ментовские войны 4
Сезон: 4 Серии: 1-8 из 8
-- Год выпуска: 2007
Мировая премьера: 1 января 2008
Дата выхода DVD: 4 декабря 2008, «Русское счастье»
Производство: Россия
Жанр: боевик, драма, криминал
Продолжительность: 00:45:00 серия
Перевод: Не требуется
Режиссер: Егор Абросимов
В ролях: Александр Устюгов, Алексей Завьялов, Дмитрий Быковский-Ромашов, Наталья Бурмистрова, Роман Громадский, Александр Лисицин, Владимир Матвеев, Леонид Осокин, Всеволод Цурило, Владислав Резник
Описание: Шилов, некоторое время назад уволившийся из милиции, работает по контракту начальником службы безопасности одного крупного нефтяного концерна, предприятия которого находятся в Сибири. Шилов и его новая супруга Лена уже несколько лет не видели Петербурга, и вот теперь, после очередного опасного злоключения, выпавшего на долю Романа, они решают, наконец, съездить на родину.
Петербург, после нескольких лет отсутствия, кажется им совсем незнакомым, почти чужим, многое они не узнают в родном городе, а многое Романа настораживает. Как раз накануне их возвращения здесь происходит несколько громких преступлений. Гибнут представители крупного бизнеса, в свое время замешанные в различных не очень благовидных взаимоотношениях с криминалитетом. Что это, очередной передел сфер влияния, или работа таинственной и грозной организации «Белая стрела», о которой постоянно ходят слухи в милицейской среде, но никто ничего не знает толком? Почувствовав угрозу собственной жизни и безопасности, к Шилову за помощью обращается сам Апостол.-КиноПоиск-Источник/Качество: DVD9
Формат: DVD Video
Видео кодек: MPEG2
Аудио кодек: AC3
Видео: PAL 4:3 (720x576), 25,000 кадров/сек, 2747 Кбит/сек
Аудио: 48,0 КГц, 2 канала, 192 Кбит/сек
Общее
Полное имя : D:\pirat.ca\Ментовские войны 4\VIDEO_TS\VTS_02_1.VOB
Формат : MPEG-PS
Размер файла : 1021 Мбайт
Продолжительность : 47 м.
Режим общего битрейта : Переменный
Общий поток : 2999 Кбит/сек
Видео
Идентификатор : 224 (0xE0)
Формат : MPEG Video
Версия формата : Version 2
Профиль формата : Main@Main
Параметр BVOP формата : Да
Параметр матрицы формата : По умолчанию
Параметр GOP формата : M=3, N=12
Продолжительность : 47 м.
Вид битрейта : Переменный
Битрейт : 2747 Кбит/сек
Максимальный битрейт : 8000 Кбит/сек
Ширина : 720 пикселей
Высота : 576 пикселей
Соотношение сторон : 4:3
Частота кадров : 25,000 кадров/сек
Стандарт вещания : PAL
Цветовое пространство : YUV
Субдискретизация насыщенности : 4:2:0
Битовая глубина : 8 бит
Тип развёртки : Чересстрочная
Порядок развёртки : Верхнее поле первое
Метод сжатия : С потерями
Бит/(Пиксели*Кадры) : 0.265
Размер потока : 936 Мбайт (92%)
Аудио
Идентификатор : 189 (0xBD)-128 (0x80)
Формат : AC-3
Формат/Информация : Audio Coding 3
Расширение режима : CM (complete main)
Режим смешивания : DVD-Video
Продолжительность : 47 м.
Вид битрейта : Постоянный
Битрейт : 192 Кбит/сек
Каналы : 2 канала
Расположение каналов : Front: L R
Частота : 48,0 КГц
Битовая глубина : 16 бит
Метод сжатия : С потерями
Задержка видео : -80 мс.
Размер потока : 65,4 Мбайт (6%)
Меню


Download / Скачать

Хотите скачать бесплатно? Зарегистрируйтесь на сайте (ссылка на регистрацию). Pirat.ca - самый быстрый торрент трекер в рунете!

Как скачивать  ·   Что такое торрент  ·   Рейтинг и ограничения

Пост 03-Дек-2011 14:08 (спустя 1 день 8 часов)

Топик был перенесен из форума Сериалы в форум Криминал/Детектив

gEmOkPaT
 

alleekss777

Лоцман

Пост 24-Мар-2012 18:56 (спустя 3 месяца 22 дня)

[Q] 

встаньте на раздачу!
[Профиль]  [ЛС] 

kornilova olga

Лоцман

Пост 07-Ноя-2013 12:03 (спустя 1 год 7 месяцев)

[Q] 

Хорошо
ay
[Профиль]  [ЛС] 
Показать сообщения:    
Ответить на тему

Текущее время: Сегодня 01:03

Часовой пояс: GMT + 4



Вы не можете начинать темы
Вы не можете отвечать на сообщения
Вы не можете редактировать свои сообщения
Вы не можете удалять свои сообщения
Вы не можете голосовать в опросах
Вы не можете прикреплять файлы к сообщениям
Вы не можете скачивать файлы

Майнать ▼