Уважаемый Гость!
Вы можете поддержать проект и зарегистрироваться у наших партнеров - онлайн-стратегия MyLands. При регистрации в игре Вы получите код, который сможете активировать после регистрации на pirat.ca и получить 1000 дублонов.

Ваш код:
6565207e164bd375895cbf8083e8e35da0e6b7f7
 
     

Ментовские войны - Эпилог (серии 1-2 из 2) (Егор Абросимов) [2009 г., криминал, DVD5](Original)

Ответить на тему
 
Автор
Сообщение

Пост 02-Дек-2011 05:48

[Q] 

zyyx

--Ментовские войныЭпилог (серии 1-2 из 2)-- Год выпуска: 2009
Мировая премьера: 14 июня 2009
Дата выхода DVD: 28 июля 2009, «Русское счастье»
Производство: Россия
Жанр: криминал
Продолжительность: 01:39:56
Перевод: Не требуется
Режиссер: Егор Абросимов
В ролях: Александр Устюгов, Алексей Завьялов, Дмитрий Быковский-Ромашов, Марина Игнатова, Александр Лисицин, Анатолий Узденский, Михаил Слесарев, Евгения Игумнова, Сергей Кушаков, Всеволод Цурило
Описание: В ходе жаркой предвыборной гонки, на пост спикера петербургской городской думы претендуют сразу два очень влиятельных в городе бизнесмена — бывший председатель Союза ветеранов Афганистана Юрий Шубин и бывший руководитель нефтяной компании Петр Набоков. Оба соперника крайне серьезно настроены на борьбу, и никакой результат кроме победы ни одного из них не утраивает. В самый драматический момент компании одного из кандидатов — Шубина — начинает преследовать таинственный шантажист. Этот человек знает о бизнесе бывшего «афганца» такое подробности, которые могут быть известны только очень близким людям.
Тем временем, Апостол тоже не дремлет. Ему удается переманить на свою сторону одного из сотрудников Шубина, который за определенное вознаграждение готов поделиться с сотрудниками «убойного» отдела информацией о былых подвигах своего шефа. Скрябин и Джексон решают взяться за это дело, тем более, что они уже не один год искали доказательства преступной деятельности Шубина. Однако дело оборачивается совершенно неожиданным образом. В результате, Джексон оказывается в тюрьме, а Скрябин бесследно исчезает. Шилову вновь приходится возвращаться в родной город…-Сэмпл | КиноПоиск-Источник/Качество: DVD5
Формат: DVD Video
Видео кодек: MPEG2
Аудио кодек: AC3
Видео: 720x576, 25,000 кадров/сек, 4427 Кбит/сек
Аудио: 48,0 КГц, 6 каналов, 384 Кбит/сек
Аудио #2: 48,0 КГц, 2 канала, 192 Кбит/сек
Общее
Полное имя : C:\pirat.ca\ментовские войны\VTS_03_1.VOB
Формат : MPEG-PS
Размер файла : 1024 Мбайт
Продолжительность : 28 м.
Режим общего битрейта : Переменный
Общий поток : 5105 Кбит/сек
Видео
Идентификатор : 224 (0xE0)
Формат : MPEG Video
Версия формата : Version 2
Профиль формата : [email protected]
Параметр BVOP формата : Да
Параметр матрицы формата : Выборочная
Продолжительность : 28 м.
Вид битрейта : Переменный
Битрейт : 4427 Кбит/сек
Максимальный битрейт : 9800 Кбит/сек
Ширина : 720 пикселей
Высота : 576 пикселей
Соотношение сторон : 4:3
Частота кадров : 25,000 кадров/сек
Стандарт вещания : PAL
Цветовое пространство : YUV
Субдискретизация насыщенности : 4:2:0
Битовая глубина : 8 бит
Тип развёртки : Чересстрочная
Порядок развёртки : Нижнее поле первое
Метод сжатия : С потерями
Бит/(Пиксели*Кадры) : 0.427
Размер потока : 888 Мбайт (87%)
Аудио #1
Идентификатор : 189 (0xBD)-128 (0x80)
Формат : AC-3
Формат/Информация : Audio Coding 3
Расширение режима : CM (complete main)
Режим смешивания : DVD-Video
Продолжительность : 28 м.
Вид битрейта : Постоянный
Битрейт : 384 Кбит/сек
Каналы : 6 каналов
Расположение каналов : Front: L C R, Side: L R, LFE
Частота : 48,0 КГц
Битовая глубина : 16 бит
Метод сжатия : С потерями
Размер потока : 77,0 Мбайт (8%)
Аудио #2
Идентификатор : 189 (0xBD)-129 (0x81)
Формат : AC-3
Формат/Информация : Audio Coding 3
Расширение режима : CM (complete main)
Режим смешивания : DVD-Video
Продолжительность : 28 м.
Вид битрейта : Постоянный
Битрейт : 192 Кбит/сек
Каналы : 2 канала
Расположение каналов : Front: L R
Частота : 48,0 КГц
Битовая глубина : 16 бит
Метод сжатия : С потерями
Размер потока : 38,5 Мбайт (4%)
Меню



Download / Скачать

Хотите скачать бесплатно? Зарегистрируйтесь на сайте (ссылка на регистрацию). Pirat.ca - самый быстрый торрент трекер в рунете!

Как скачивать  ·   Что такое торрент  ·   Рейтинг и ограничения

Пост 03-Дек-2011 14:10 (спустя 1 день 8 часов)

Топик был перенесен из форума Сериалы в форум Криминал/Детектив

gEmOkPaT
 

mon107

Гроза морей

68

Пост 14-Мар-2012 11:47 (спустя 3 месяца 12 дней)

[Q] 

а это эпилог к какому сезону?
[Профиль]  [ЛС] 

XAPOH

Гроза морей

Пост 12-Июн-2013 20:56 (спустя 1 год 2 месяца)

[Q] 


_________________

<<<Dolus an virtus quis in hoste requirat?>>>
Intel Core i7 2600, 16Gb Ram, GTX 670, SSD.
PS4.
[Профиль]  [ЛС] 
Показать сообщения:    
Ответить на тему

Текущее время: Сегодня 02:37

Часовой пояс: GMT + 4



Вы не можете начинать темы
Вы не можете отвечать на сообщения
Вы не можете редактировать свои сообщения
Вы не можете удалять свои сообщения
Вы не можете голосовать в опросах
Вы не можете прикреплять файлы к сообщениям
Вы не можете скачивать файлы

▼ Вниз