Хроники Риддика (Режиссерская версия) / The Chronicles of Riddick (Unrated Director's Cut) (Дэвид Туи / David Twohy) [2004 г., Фантастика, боевик, триллер, приключения, HDRip] AVO (А.Гаврилов, Ю.Живов)

Ответить на тему
 
Автор
Сообщение

Пост 02-Дек-2011 13:27

[Q] 

Consul

Хроники Риддика / The Chronicles of Riddick (Режиссерская версия / Unrated Director's Cut) Год выпуска: 2004
Мировая премьера: 3 июня 2004
Российская премьера: 30 сентября 2004, «Парадиз»
Дата выхода DVD: 26 мая 2009, «ПАРАДИЗ-ВC»
Производство: США
Жанр: Фантастика, боевик, триллер, приключения
Продолжительность: 02:14:05
Перевод:
1 - Авторский (одноголосый) А.Гаврилов
2 - Авторский (одноголосый) Ю.Живов
Режиссер: Дэвид Туи / David Twohy
В ролях:
Вин Дизель / Vin Diesel, Колм Феоре / Colm Feore, Тэнди Ньютон / Thandie Newton, Джуди Денч / Judi Dench, Карл Урбан / Karl Urban, Алекса Давалос / Alexa Davalos ...
Описание:
Последние пять лет Риддик провел в бегах среди забытых миров на задворках галактики, прячась от наемников, назначивших цену за его голову. Теперь беглец оказался на планете Гелион, где живет прогрессивное многонациональное общество, завоеванное лордом Маршалом, фанатиком, решившим поработить человечество армадой своих воинов, некромонгеров.
Совершив побег из подземной тюрьмы, где температура колебалась от арктических ночей до вулканических дней, Риддик встречает Кайру, последнюю оставшуюся в живых женщину из раннего периода его жизни. Его попытки освободить себя и Кайру приводят их на борт главного корабля некромонгеров, где ему предстоит столкнуться с лордом Маршалом в апокалиптической битве не на жизнь, а на смерть.
Доп. информация:
Бюджет $105 000 000
Маркетинг $35 000 000
Сборы в США $57 761 012
Сборы в мире + $57 605 740 = $115 366 752
Автору Rip-а kingsize87 - большое спасибо!
Источник/Качество: HDRip
Формат: AVI
Видео кодек: XviD
Аудио кодек: AC3
Видео: 720x304, 1868 kbps, 23.976 fps, 0.35 bit/pixel
Audio 1: Dolby AC3 48000Hz 6ch 448kbps А.Гаврилов
Audio 2: Dolby AC3 48000Hz 6ch 448kbps Ю.Живов
Премия канала «MTV», 2005 год
Победитель (1):
* Лучшая видеоигра по мотивам кинофильма
«Я не преклоняюсь ни перед одним человеком…»
Лично я большой поклонник хорошей фантастики, тем более фантастических боевиков. Сейчас подобные фильмы — редкость!И в этот раз мне было очень приятно увидеть такое творение, тем более с Вином Дизелем в главной роли. На протяжении «Хроник Риддика» я не заметил ни одной скучной минутки. Здесь каждый миг если и не наполнен красивыми драками, то изобилует интересными диалогами. Сейчас попытаюсь описать вкратце.
Риддик невольно стал узником замерзшей планеты, и на ней ему пришлось скрываться от наёмников, которые не прочь получить награду за голову главного героя. Но Риддик оказался нелегкой наживой. Разобравшись с этими невеждами, он улетает на их корабле на планету Гелион Прайм, где у него есть старые друзья, но когда наш «Крепкий орешек» достигает цели, то видит, что всю вселенную осадила новая раса, Некромонгеры (Или Некроманты в некоторых переводах),и ему приходится дать бой возмутителям спокойствия.
Сам персонаж Вина Дизеля изобилует пафосом и холодным остроумием. Эти качества проявляются почти во всех диалогах с участием Риддика:
" — Ну и что, Риддик, убьёшь меня своей кружкой с супом?
— Кружкой с чаем…»
Очень понравилась мне и финальная битва с главным Некромонгером. Все, кто смотрел, наверняка заметили, что бой между «плохим и хорошим парнем» сделали совершенно не банальным, относительно остальных боевиков, где главный герой буквально плюясь выбитыми зубами и махая поломанными руками каким то загадочным образом находит в себе силы вырвать победу у злодея. Так же Риддик находит выход из любой ситуации, причем это опять же не смотрится глупо. А всё потому, что за этот фильм взялся опытный режиссер, который кроме этого преподнес нам и отличное зрелище, и интересный сюжет, и хороших персонажей.
Кстати насчет персонажей!Кроме самого Вина Дизеля мне понравилось, как сыграл и Карл Урбан (у него тоже одна из глав. ролей)
В общем здесь можно написать целую книгу, а я постарался поведать о фильме вкратце. Здесь больше сказать нечего. Посмотрите!Всем советую. Очень захватывающий фильм… Лично мне очень понравился
10 из 10
16 февраля 2010 / Famircon
* Первоначально сценарий к картине должен был писать лауреат премии «Оскар» за фильм «Игры разума» Акива Голдсман.
* Продюсер Вин Дизель, желая видеть в роли Эреон обязательно Джуди Денч, чтобы добиться ее согласия на роль, заполнял ее гримерную цветами и постоянно утверждал, что съемки фильма не начнутся, пока Джуди не даст свое согласие.
* Стиль боевого искусства, используемого Риддиком, напоминает «стиль Кали», характеризующимся прямыми, мощными ударами с частым использованием палок.
* Картина снималась в городах Барнбари и Ванкувер (Канада, провинция Британская Колумбия).
* Рабочими названиями картины были «Риддик» (Riddick), «Черная дыра 2: Хроники Риддика» (Pitch Black 2: The Chronicles of Riddick) и «Черная дыра 2» (Pitch Black 2).
* Съемки картины начались 9 июня 2003 года в Ванкувере, а закончились в конце октября того же года.
* Официальное подписание контракта с Вином Дизелем состоялось в сентябре 2001 года.
Общее
Полное имя : D:\[Pirat.ca]\! ~ Consul ~ !\Хроники Риддика (2004) HDRip\v2\Hroniki Riddika.2004.BDRip.avi
Формат : AVI
Формат/Информация : Audio Video Interleave
Профиль формата : OpenDML
Размер файла : 2,60 Гбайт
Продолжительность : 2 ч. 14 м.
Общий поток : 2780 Кбит/сек
Программа кодирования : VirtualDubModRus 1.5.10.2 (build 2542/release)
Библиотека кодирования : VirtualDubMod build 2542/release
Видео
Идентификатор : 0
Формат : MPEG-4 Visual
Профиль формата : Advanced [email protected]
Параметр BVOP формата : 1
Параметр QPel формата : Нет
Параметр GMC формата : Без точки перехода
Параметр матрицы формата : Выборочная
Идентификатор кодека : XVID
Идентификатор кодека/Подсказка : XviD
Продолжительность : 2 ч. 14 м.
Битрейт : 1868 Кбит/сек
Ширина : 720 пикселей
Высота : 304 пикселя
Соотношение сторон : 2,35:1
Частота кадров : 23,976 кадра/сек
Цветовое пространство : YUV
Субдискретизация насыщенности : 4:2:0
Битовая глубина : 8 бит
Тип развёртки : Прогрессивная
Метод сжатия : С потерями
Бит/(Пиксели*Кадры) : 0.356
Размер потока : 1,75 Гбайт (67%)
Библиотека кодирования : XviD 1.2.1 (UTC 2008-12-04)
Аудио #1
Идентификатор : 1
Формат : AC-3
Формат/Информация : Audio Coding 3
Расширение режима : CM (complete main)
Идентификатор кодека : 2000
Продолжительность : 2 ч. 14 м.
Вид битрейта : Постоянный
Битрейт : 448 Кбит/сек
Каналы : 6 каналов
Расположение каналов : Front: L C R, Side: L R, LFE
Частота : 48,0 КГц
Битовая глубина : 16 бит
Метод сжатия : С потерями
Размер потока : 430 Мбайт (16%)
Выравнивание : Разделение по промежуткам
Продолжительность промежутка : 42 мс. (1,00 видеокадр)
Заголовок : AVO ( А.Гаврилов )
Аудио #2
Идентификатор : 2
Формат : AC-3
Формат/Информация : Audio Coding 3
Расширение режима : CM (complete main)
Идентификатор кодека : 2000
Продолжительность : 2 ч. 14 м.
Вид битрейта : Постоянный
Битрейт : 448 Кбит/сек
Каналы : 6 каналов
Расположение каналов : Front: L C R, Side: L R, LFE
Частота : 48,0 КГц
Битовая глубина : 16 бит
Метод сжатия : С потерями
Размер потока : 430 Мбайт (16%)
Выравнивание : Разделение по промежуткам
Продолжительность промежутка : 42 мс. (1,00 видеокадр)
Заголовок : AVO ( Ю.Живов )







- - -
Download / Скачать

Хотите скачать бесплатно? Зарегистрируйтесь на сайте (ссылка на регистрацию). Pirat.ca - самый быстрый торрент трекер в рунете!

Как скачивать  ·   Что такое торрент  ·   Рейтинг и ограничения

Пост 02-Дек-2011 19:25 (спустя 5 часов)

Топик был перенесен из форума Фильмы с авторским переводом в форум Основной раздел (Авторские переводы)

feldeger
 

pozdnyakoff75

Гроза морей

2887

Пост 20-Апр-2013 18:00 (спустя 1 год 4 месяца)

[Q] 

Спасибо! пересмотрю этот фильмец еще разок.
[Профиль]  [ЛС] 

gross1978

7655

Пост 11-Янв-2014 14:02 (спустя 8 месяцев 20 дней)

[Q] 

не глянул есть ли этот фильм и сделал рип..... ну ничего, не пропадет...
спасибо за релиз.

_________________
Употребляйте правильно слова, и вы избавите мир от половины недоразумений (Р.Декарт).
Если у Вас есть переводы в авторском, которых нет в моих раздачах и желание ими поделиться, пишите, добавим:)
[Профиль]  [ЛС] 

titan_t1000

Морской Волк

Пост 28-Янв-2014 00:54 (спустя 16 дней)

[Q] 

Моя бы воля - все фильмы в режиссерской версии смотрел - она всегда лучше)
[Профиль]  [ЛС] 

Alexe10

Гроза морей

36

Пост 10-Окт-2014 08:21 (спустя 8 месяцев 13 дней)

[Q] 

Хороший фильмец.
[Профиль]  [ЛС] 
Показать сообщения:    
Ответить на тему

Текущее время: Сегодня 08:04

Часовой пояс: GMT + 4



Вы не можете начинать темы
Вы не можете отвечать на сообщения
Вы не можете редактировать свои сообщения
Вы не можете удалять свои сообщения
Вы не можете голосовать в опросах
Вы не можете прикреплять файлы к сообщениям
Вы не можете скачивать файлы

Майнать ▼