Уважаемый Гость!
Вы можете поддержать проект и зарегистрироваться у наших партнеров - онлайн-стратегия MyLands. При регистрации в игре Вы получите код, который сможете активировать после регистрации на pirat.ca и получить 1000 дублонов.

Ваш код:
6565207e164bd375895cbf8083e8e35da0e6b7f7
 
     

Немыслимое / Unthinkable (Грегор Джордан / Gregor Jordan) [2010, HDRip] [Dub] [Лицензия]

Ответить на тему
 
Автор
Сообщение

Пост 02-Дек-2011 14:17

[Q] 

RaSSeL BeatS

Лоцман

-НемыслимоеUnthinkable -Информация о фильме-
  • Год выхода: 2010
  • Cтрана: США
  • Жанр:триллер, драма
  • Продолжительность: 01:37:07
  • Перевод
    профессиональный (многоголосый закадровый) лицензия R5
    авторский (одноголосый закадровый) Гаврилов
  • Режиссер: Грегор Джордан / Gregor Jordan
  • В ролях: Сэмюэл Л. Джексон, Кэрри-Энн Мосс, Майкл Шин, Стивен Рут, Лора Койович, Мартин Донован, Джил Беллоуз, Винсент Лареска, Брэндон Рут, Джошуа Харто, Холмс Осборн, Майкл Эдвард Роуз, Рэнди Оглсби, Бенито Мартинес, Саша Ройз, Дайо Эд, Яра Шахиди, Сайид Шахиди, Некар Задеган, Джиллиан Бруно.
-Описание-
  • США стоят на пороге катастрофы: где-то на американской территории заложены 3 ядерных взрывных устройства. Спецслужбам известно, что они должны взорваться в некий "час Х". Но где и когда произойдут взрывы, которые сметут с лица земли миллионы людей? Страшную тайну хранит только один человек, и властям необходимо во что бы то ни стало заставить его говорить. Как далеко они готовы зайти ради этого?
-Технические данные-
  • Качество: HDRip
  • Формат: AVI
  • Видео кодек: XviD
  • Аудио кодек: АС3
  • Видео: XviD, 704x384 (16:9), 23.976 fps, 2029 kbps avg, 0.313 bit/pixel
  • Аудио 1: Русский; 48 kHz, AC3, 3/2 (L,C,R,l,r) + LFE ch, ~640.00 kbps avg
  • Аудио 2: Английский дубляж; 48 kHz, AC3 Dolby Digital, 3/2 (L,C,R,l,r) + LFE ch, 384 kbps avg
  • Аудио 4: Авторский одноголосый закадровый перевод, Гаврилов; 48 kHz, AC3 Dolby Digital, 3/2 (L,C,R,l,r) + LFE ch, 384 kbps avg
  • Субтитры: русские (Full) + английские (Full+SDH) отдельно
-
Код:
Общее
Полное имя : D:\Torrent СПАМ\Unthinkable.2010.Extended.TRIPLE.XviD.AC3.HDRip._by.ZNG505\Unthinkable.2010.Extended.TRIPLE.XviD.AC3.HDRip.avi
Формат : AVI
Формат/Информация : Audio Video Interleave
Профиль формата : OpenDML
Размер файла : 2,17 Гбайт
Продолжительность : 1 ч. 37 м.
Общий поток : 3204 Кбит/сек
Программа кодирования : VirtualDubModRus 1.5.10.2 (build 2542/release)
Библиотека кодирования : VirtualDubMod build 2542/release
Видео
Идентификатор : 0
Формат : MPEG-4 Visual
Профиль формата : Advanced [email protected]
Параметр BVOP формата : 1
Параметр QPel формата : Нет
Параметр GMC формата : Без точки перехода
Параметр матрицы формата : Выборочная
Идентификатор кодека : XVID
Идентификатор кодека/Подсказка : XviD
Продолжительность : 1 ч. 37 м.
Битрейт : 2029 Кбит/сек
Ширина : 704 пикселя
Высота : 384 пикселя
Соотношение сторон : 16:9
Частота кадров : 23,976 кадра/сек
Цветовое пространство : YUV
Субдискретизация насыщенности : 4:2:0
Битовая глубина : 8 бит
Тип развёртки : Прогрессивная
Метод сжатия : С потерями
Бит/(Пиксели*Кадры) : 0.313
Размер потока : 1,38 Гбайт (63%)
Библиотека кодирования : XviD 1.2.1 (UTC 2008-12-04)
Аудио #1
Идентификатор : 1
Формат : AC-3
Формат/Информация : Audio Coding 3
Расширение режима : CM (complete main)
Идентификатор кодека : 2000
Продолжительность : 1 ч. 37 м.
Вид битрейта : Постоянный
Битрейт : 384 Кбит/сек
Каналы : 6 каналов
Расположение каналов : Front: L C R, Side: L R, LFE
Частота : 48,0 КГц
Битовая глубина : 16 бит
Метод сжатия : С потерями
Размер потока : 267 Мбайт (12%)
Выравнивание : Разделение по промежуткам
Продолжительность промежутка : 42 мс. (1,00 видеокадр)
Время предзагрузки промежутка : 500 мс.
Аудио #2
Идентификатор : 2
Формат : AC-3
Формат/Информация : Audio Coding 3
Расширение режима : CM (complete main)
Идентификатор кодека : 2000
Продолжительность : 1 ч. 37 м.
Вид битрейта : Постоянный
Битрейт : 384 Кбит/сек
Каналы : 6 каналов
Расположение каналов : Front: L C R, Side: L R, LFE
Частота : 48,0 КГц
Битовая глубина : 16 бит
Метод сжатия : С потерями
Размер потока : 267 Мбайт (12%)
Выравнивание : Разделение по промежуткам
Продолжительность промежутка : 42 мс. (1,00 видеокадр)
Время предзагрузки промежутка : 500 мс.
Аудио #3
Идентификатор : 3
Формат : AC-3
Формат/Информация : Audio Coding 3
Расширение режима : CM (complete main)
Идентификатор кодека : 2000
Продолжительность : 1 ч. 37 м.
Вид битрейта : Постоянный
Битрейт : 384 Кбит/сек
Каналы : 6 каналов
Расположение каналов : Front: L C R, Side: L R, LFE
Частота : 48,0 КГц
Битовая глубина : 16 бит
Метод сжатия : С потерями
Размер потока : 267 Мбайт (12%)
Выравнивание : Разделение по промежуткам
Продолжительность промежутка : 42 мс. (1,00 видеокадр)
Время предзагрузки промежутка : 500 мс.
-
  • Бюджет: $15 000 000
  • Cборы в мире: Unknown
- ,
-
-
Download / Скачать

Хотите скачать бесплатно? Зарегистрируйтесь на сайте (ссылка на регистрацию). Pirat.ca - самый быстрый торрент трекер в рунете!

Как скачивать  ·   Что такое торрент  ·   Рейтинг и ограничения

Пост 02-Дек-2011 20:55 (спустя 6 часов)

Топик был перенесен из форума Художественные фильмы (Зарубежное кино) в форум Современное кино (с 2000 г.)

Skinwalker
 

genaev82

Шкипер

Пост 17-Янв-2013 00:15 (спустя 1 год 1 месяц)

[Q] 

[Профиль]  [ЛС] 

Mustafa Sazont

Шкипер

Пост 29-Дек-2017 15:45 (спустя 4 года 11 месяцев)

[Q] 

Фильм просто БОМБА!
[Профиль]  [ЛС] 
Показать сообщения:    
Ответить на тему

Текущее время: Сегодня 02:32

Часовой пояс: GMT + 4



Вы не можете начинать темы
Вы не можете отвечать на сообщения
Вы не можете редактировать свои сообщения
Вы не можете удалять свои сообщения
Вы не можете голосовать в опросах
Вы не можете прикреплять файлы к сообщениям
Вы не можете скачивать файлы

▼ Вниз