Уважаемый Гость!
Вы можете поддержать проект и зарегистрироваться у наших партнеров - онлайн-стратегия MyLands. При регистрации в игре Вы получите код, который сможете активировать после регистрации на pirat.ca и получить 1000 дублонов.

Ваш код:
6565207e164bd375895cbf8083e8e35da0e6b7f7
 
     

Диагноз любовь / Coming & Going (Эдоардо Понти / Edoardo Ponti) [2011 г.] (Комедия) [DVDRip] (MVO) [internal release]

Ответить на тему
 
Автор
Сообщение

Пост 02-Дек-2011 15:08

[Q] 

Чужая

--Диагноз любовь / Coming & Going-- Год выпуска: 2011
Мировая премьера: 15 июля 2011
Производство: США
Жанр: Комедия
Продолжительность: 01:29:00
Перевод: Профессиональный (многоголосый закадровый) [Лицензия]--Режиссер: Эдоардо Понти / Edoardo Ponti--В ролях: Риз Дэрби, Саша Александр, Фионнула Флэнаган, Пэм Кук, Майкл Корначчиа, Брайан Хукс, Ивана Миличевич, Карла Галло, Мэтер Зикел, Омар Авила...--Описание: Ли — молодой квалифицированный гинеколог. В своем кабинете он всесилен, но для того, чтобы заговорить с женщиной вне клиники, ему не хватает уверенности. Его мама хочет найти ему хорошую девушку, из-за чего он постоянно попадает в неудобные ситуации.
Нелепая случайность временно приковывает его к инвалидной коляске, и как раз в этом время он встречает девушку своей мечты. Убежденный в том, что она обратила на него внимание только из-за кресла, он остается в нем даже после того, как вылечивается от травмы. Но сможет ли эта маленькая ложь помочь ему?--
--Источник/Качество: DVDRip
Формат: AVI
Видео кодек: XviD
Аудио кодек: AC3
Видео: 720x400 (1.80:1), 25 fps, XviD build 50 ~1756 kbps avg, 0.24 bit/pixel
Аудио: 48 kHz, AC3 Dolby Digital, 3/2 (L,C,R,l,r) + LFE ch, ~448 kbps
Общее
Полное имя : D:\Jolly Roger\Diagnoz lubov.2011.DVDRip.XviD.JRG.avi
Формат : AVI
Формат/Информация : Audio Video Interleave
Размер файла : 1,38 Гбайт
Продолжительность : 1 ч. 29 м.
Общий поток : 2214 Кбит/сек
Программа кодирования : VirtualDubMod 1.5.10.3 | www.virtualdub-fr.org || (build 2550/release)
Библиотека кодирования : VirtualDubMod build 2550/release
Видео
Идентификатор : 0
Формат : MPEG-4 Visual
Профиль формата : Advanced [email protected]
Параметр BVOP формата : 2
Параметр QPel формата : Нет
Параметр GMC формата : Без точки перехода
Параметр матрицы формата : Default (MPEG)
Идентификатор кодека : XVID
Идентификатор кодека/Подсказка : XviD
Продолжительность : 1 ч. 29 м.
Битрейт : 1757 Кбит/сек
Ширина : 720 пикс.
Высота : 400 пикс.
Соотношение сторон : 16:9
Частота кадров : 25,000 кадр/сек
Цветовое пространство : YUV
Подвыборка цветности : 4:2:0
Битовая глубина : 8 бит
Тип развёртки : Прогрессивная
Метод сжатия : С потерями
Бит/(Пиксели*Кадры) : 0.244
Размер потока : 1,09 Гбайт (79%)
Библиотека кодирования : XviD 1.2.1 (UTC 2008-12-04)
Аудио
Идентификатор : 1
Формат : AC-3
Формат/Информация : Audio Coding 3
Расширение режима : CM (complete main)
Идентификатор кодека : 2000
Продолжительность : 1 ч. 28 м.
Вид битрейта : Постоянный
Битрейт : 448 Кбит/сек
Канал(ы) : 6 канала(ов)
Расположение каналов : Front: L C R, Side: L R, LFE
Частота : 48,0 КГц
Битовая глубина : 16 бит
Метод сжатия : С потерями
Размер потока : 285 Мбайт (20%)
Выравнивание : Разделение по промежуткам
Продолжительность промежутка : 40 мс. (1,00 видеокадр)
Время предзагрузки промежутка : 500 ms


Download / Скачать

Хотите скачать бесплатно? Зарегистрируйтесь на сайте (ссылка на регистрацию). Pirat.ca - самый быстрый торрент трекер в рунете!

Как скачивать  ·   Что такое торрент  ·   Рейтинг и ограничения

KRAcos

Лоцман

10

Пост 02-Дек-2011 16:29 (спустя 1 час 20 минут)

[Q] 

Благодарю
[Профиль]  [ЛС] 

EDVAR

Легенда

Пост 02-Дек-2011 22:14 (спустя 5 часов)

[Q] 

Спасибо!!!

_________________
"Как других судить-вы судьи.Как себя-вы адвокаты"
[Профиль]  [ЛС] 

nosferato

Штурман

Пост 03-Дек-2011 06:42 (спустя 8 часов)

[Q] 

Спасибо!!! заберу.

_________________
Велик интернет, а отступать некуда - позади фидо
[Профиль]  [ЛС] 

nadin

Лоцман

Пост 04-Дек-2011 11:10 (спустя 1 день 4 часа)

[Q] 

Спасибо!
[Профиль]  [ЛС] 

TomCatGun

Флибустьер

Пост 04-Дек-2011 12:03 (спустя 52 минуты)

[Q] 

спасибо :)
[Профиль]  [ЛС] 

WorldCount

Морской Волк

1

Пост 04-Дек-2011 16:44 (спустя 4 часа)

[Q] 

Эмс, мне одному кажется, что в названии не хватает знаков препинания?)
[Профиль]  [ЛС] 

Shepot

Шкипер

Пост 05-Дек-2011 07:27 (спустя 14 часов)

[Q] 

Хороший фильм, хоть и не люблю америкосов.

_________________
"Берегись друзей, а с врагами я справлюсь"
(надпись на мече Александра Македонского)
[Профиль]  [ЛС] 

lis777

Корсар

Пост 05-Дек-2011 10:23 (спустя 2 часа 55 минут)

[Q] 

спасибо заценим
[Профиль]  [ЛС] 

elektrolux

Лоцман

Пост 06-Дек-2011 13:36 (спустя 1 день 3 часа)

[Q] 

Чужая, респект за раздачи!!!
[Профиль]  [ЛС] 

GarySk

Корсар

Пост 06-Дек-2011 14:15 (спустя 38 минут)

[Q] 

Спасибо!
[Профиль]  [ЛС] 

SoulAge

Лоцман

Пост 11-Дек-2011 22:38 (спустя 5 дней)

[Q] 

Мне не очень, идея загублена. Нет взрывных шуток, дело в том, что очень слабая игра актеров. Если совсем нечего смотреть, то можно. Второй раз вы смотреть не станете.
[Профиль]  [ЛС] 

maksssi

Корсар

Пост 12-Дек-2011 03:04 (спустя 4 часа)

[Q] 

Спасибки!
[Профиль]  [ЛС] 

TomCatGun

Флибустьер

Пост 03-Янв-2012 01:18 (спустя 21 день)

[Q] 

спасибо :)
[Профиль]  [ЛС] 

Yrets

Флибустьер

161

Пост 18-Янв-2012 17:07 (спустя 15 дней)

[Q] 

Не знаюююю...
[Профиль]  [ЛС] 

ArmSlave

Штурман

Пост 21-Янв-2012 20:42 (спустя 3 дня)

[Q] 

НОРМАЛЬНЫЙ?
[Профиль]  [ЛС] 

BOBROFF

Морской Волк

Пост 22-Янв-2012 13:01 (спустя 16 часов)

[Q] 

ОДноразовый
[Профиль]  [ЛС] 
Показать сообщения:    
Ответить на тему

Текущее время: Сегодня 02:34

Часовой пояс: GMT + 4



Вы не можете начинать темы
Вы не можете отвечать на сообщения
Вы не можете редактировать свои сообщения
Вы не можете удалять свои сообщения
Вы не можете голосовать в опросах
Вы не можете прикреплять файлы к сообщениям
Вы не можете скачивать файлы

▼ Вниз