Уважаемый Гость!
Вы можете поддержать проект и зарегистрироваться у наших партнеров - онлайн-стратегия MyLands. При регистрации в игре Вы получите код, который сможете активировать после регистрации на pirat.ca и получить 1000 дублонов.

Ваш код:
6565207e164bd375895cbf8083e8e35da0e6b7f7
 
     

Побеждай! / Win Win (Томас МакКарти / Thomas McCarthy) [2011 г.] (Драма, комедия) [HDRip] (MVO) [internal release]

Ответить на тему
 
Автор
Сообщение

Пост 02-Дек-2011 15:44

[Q] 

Чужая

--Побеждай! / Win Win-- Год выпуска: 2011
Мировая премьера: 21 января 2011
Производство: США
Жанр: Драма, комедия
Продолжительность: 01:46:01
Перевод: Профессиональный (многоголосый закадровый) [Лицензия]--Режиссер: Томас МакКарти / Thomas McCarthy--В ролях: Пол Джаматти, Эми Райан, Бобби Каннавале, Джефри Тэмбор, Берт Янг, Мелани Лински, Алекс Шеффер, Марго Мартиндейл, Дэвид Томпсон, Mike Diliello...--Описание: Неуверенный в себе адвокат Майк Флаэрти, пытаясь прокормить семью, подрабатывает тренером по борьбе в средней школе, и связывается с бывшим звездным спортсменом, который участвует в некоторых сомнительных деловых операциях. Майк берет на себя опеку над пожилыми клиентами в отчаянной попытке сохранить свою адвокатскую практику на плаву. Когда один из подростков, внук клиента, убегает из дома и появляется на пороге дома его деда, жизнь Майка переворачивается с ног на голову, а его взаимовыгодное положение превращается в нечто гораздо более сложное, чем он когда-либо ожидал.--
--Источник/Качество: HDRip
Формат: AVI
Видео кодек: XviD
Аудио кодек: AC3
Видео: 720x384 (1.88:1), 23.976 fps, XviD build 50 ~1577 kbps avg, 0.24 bit/pixel
Аудио: 48 kHz, AC3 Dolby Digital, 3/2 (L,C,R,l,r) + LFE ch, ~384 kbps
Общее
Полное имя : D:\Jolly Roger\Pobejdai.2011.HDRip.XviD.JRG.avi
Формат : AVI
Формат/Информация : Audio Video Interleave
Размер файла : 1,46 Гбайт
Продолжительность : 1 ч. 46 м.
Общий поток : 1971 Кбит/сек
Программа кодирования : VirtualDubMod 1.5.10.3 | www.virtualdub-fr.org || (build 2550/release)
Библиотека кодирования : VirtualDubMod build 2550/release
Видео
Идентификатор : 0
Формат : MPEG-4 Visual
Профиль формата : Advanced [email protected]
Параметр BVOP формата : 2
Параметр QPel формата : Нет
Параметр GMC формата : Без точки перехода
Параметр матрицы формата : Default (MPEG)
Идентификатор кодека : XVID
Идентификатор кодека/Подсказка : XviD
Продолжительность : 1 ч. 46 м.
Битрейт : 1578 Кбит/сек
Ширина : 720 пикс.
Высота : 384 пикс.
Соотношение сторон : 1,875
Частота кадров : 23,976 кадр/сек
Цветовое пространство : YUV
Подвыборка цветности : 4:2:0
Битовая глубина : 8 бит
Тип развёртки : Прогрессивная
Метод сжатия : С потерями
Бит/(Пиксели*Кадры) : 0.238
Размер потока : 1,17 Гбайт (80%)
Библиотека кодирования : XviD 1.2.1 (UTC 2008-12-04)
Аудио
Идентификатор : 1
Формат : AC-3
Формат/Информация : Audio Coding 3
Расширение режима : CM (complete main)
Идентификатор кодека : 2000
Продолжительность : 1 ч. 46 м.
Вид битрейта : Постоянный
Битрейт : 384 Кбит/сек
Канал(ы) : 6 канала(ов)
Расположение каналов : Front: L C R, Side: L R, LFE
Частота : 48,0 КГц
Битовая глубина : 16 бит
Метод сжатия : С потерями
Размер потока : 291 Мбайт (19%)
Выравнивание : Разделение по промежуткам
Продолжительность промежутка : 42 мс. (1,00 видеокадр)
Время предзагрузки промежутка : 500 ms


Download / Скачать

Хотите скачать бесплатно? Зарегистрируйтесь на сайте (ссылка на регистрацию). Pirat.ca - самый быстрый торрент трекер в рунете!

Как скачивать  ·   Что такое торрент  ·   Рейтинг и ограничения

izk84

Лоцман

Пост 02-Дек-2011 15:54 (спустя 9 минут)

[Q] 

супер)))спасибо)))
[Профиль]  [ЛС] 

Balthazar

Лоцман

Пост 02-Дек-2011 20:43 (спустя 4 часа)

[Q] 

спасибо.смысл держать раздачи столько времени.если тех проблемы,так бы и написали.
[Профиль]  [ЛС] 

Sonic777

Корсар

Пост 03-Дек-2011 01:22 (спустя 4 часа)

[Q] 

Спасибо)!
[Профиль]  [ЛС] 

Чужая ®

97836

Пост 03-Дек-2011 14:32 (спустя 13 часов)

[Q] 

Доброго дня, Balthazar!
Если я что-то "держу", значит что-то случилось, я с релизами в Бирюльки не играю.
Все просто, свободные рыночные отношения. - Нет терпения? - найдите на другом ресурсе, в чем я лично, сомневаюсь.
[Профиль]  [ЛС] 

jaytro

Морской Волк

Пост 03-Дек-2011 17:24 (спустя 2 часа 51 минута)

[Q] 

норм скорость скачивания))!!!до 6 мбит спасибо!!
[Профиль]  [ЛС] 

storm

Морской Волк

Пост 05-Дек-2011 18:12 (спустя 2 дня)

[Q] 

Спасибо за раздачу.
[Профиль]  [ЛС] 

viji

Корсар

Пост 10-Дек-2011 11:26 (спустя 4 дня)

[Q] 

Фильм честно говоря паршивенький. Его можно смотреть, актеры играют нормально, диалоги вроде тоже адекватные, но в фильме ничего нет ценного, что бы хоть как-то цепляло, разве, что может понравятся сами молодежные борцовские бои на ринге. И ни драмы как таковой в фильме нет, а комедии вообще никакой нет, абсолютно. Спорт и немного меланхолического настроя под названием сплин.
[Профиль]  [ЛС] 

Yrets

Флибустьер

161

Пост 18-Янв-2012 17:05 (спустя 1 месяц 8 дней)

[Q] 

Отказать...
[Профиль]  [ЛС] 

spatun

Корсар

Пост 18-Янв-2012 19:20 (спустя 2 часа 14 минут)

[Q] 

Фильм честно говоря паршивенький.
А название оптимистическое

_________________
[Профиль]  [ЛС] 

sd535

Флибустьер

1810

Пост 18-Янв-2012 19:50 (спустя 30 минут)

[Q] 

[Профиль]  [ЛС] 

lexa_active2

Лоцман

Пост 19-Янв-2012 17:57 (спустя 22 часа)

[Q] 

Так себе фильмец...
[Профиль]  [ЛС] 

storm

Морской Волк

Пост 11-Фев-2012 01:46 (спустя 22 дня)

[Q] 

Фильм честно говоря паршивенький. Его можно смотреть, актеры играют нормально, диалоги вроде тоже адекватные, но в фильме ничего нет ценного, что бы хоть как-то цепляло, разве, что может понравятся сами молодежные борцовские бои на ринге. И ни драмы как таковой в фильме нет, а комедии вообще никакой нет, абсолютно. Спорт и немного меланхолического настроя под названием сплин.
И, как следствие, посмотрел и забыл.
[Профиль]  [ЛС] 

enterich

Лоцман

Пост 11-Фев-2012 22:28 (спустя 20 часов)

[Q] 

рип гумно
[Профиль]  [ЛС] 

quicko

Морской Волк

145

Пост 05-Апр-2012 17:34 (спустя 1 месяц 22 дня)

[Q] 

[Профиль]  [ЛС] 

FruTT

Корсар

2

Пост 12-Дек-2012 22:16 (спустя 8 месяцев 7 дней)

[Q] 


_________________
Подпись отключена за нарушение правил форума
[Профиль]  [ЛС] 

UncleFather

Легенда

Пост 24-Янв-2014 19:51 (спустя 1 год 1 месяц)

[Q] 

Кто не посмотрел - ничего не потерял. Кто посмотрел - ничего не приобрел((

_________________
Одни боялись Пью, другие - Билли Бонса, а меня... меня боялся сам Флинт
[Профиль]  [ЛС] 
Показать сообщения:    
Ответить на тему

Текущее время: Сегодня 02:31

Часовой пояс: GMT + 4



Вы не можете начинать темы
Вы не можете отвечать на сообщения
Вы не можете редактировать свои сообщения
Вы не можете удалять свои сообщения
Вы не можете голосовать в опросах
Вы не можете прикреплять файлы к сообщениям
Вы не можете скачивать файлы

▼ Вниз