Уважаемый Гость!
Вы можете поддержать проект и зарегистрироваться у наших партнеров - онлайн-стратегия MyLands. При регистрации в игре Вы получите код, который сможете активировать после регистрации на pirat.ca и получить 1000 дублонов.

Ваш код:
97fa0117a29d78216176c2d79b04e60d770c7433
 
     

Синди Кроуфорд: Секрет идеальной фигуры / Shape your body: Workout with fitness expert (Петер Каре / Peter Care) [1992 г., фитнес, DVDRip]

Ответить на тему
 
Автор
Сообщение

Пост 29-Мар-2012 22:09

[Q] 

erchine

Синди Кроуфорд: Секрет идеальной фигуры / Shape your body: Workout with fitness expert
Год выпуска: 1992
Жанр: фитнес
Продолжительность: 1:38:49
Режиссер: Петер Каре / Peter Care
В ролях: Синди Кроуфорд
Описание: Предлагаемый комплекс упражнений разработан одним из самых известных тренеров Нью-Йорка Раду совместно с топ моделью Синди Кроуфорд. Его используют многие супермодели и звезды Голливуда. Кассета с записью этого комплекса стала мировым бестселлером. "Моя профессия заставляет меня заботиться о своем теле. Поэтому я регулярно выполняю специальный комплекс физических упражнений. Мы засняли его на живописном фоне в сопровождении прекрасной музыки. Это больше похоже на музыкальное видео, чем на кассету с упражнениями. Их просто приятно смотреть. Но главное, что эти упражнения помогут Вам выглядеть и чувствовать себя лучше, чем раньше..." (Синди Кроуфорд)
Источник/Качество: DVDRip
Формат: AVI
Видео кодек: XviD
Аудио кодек: AC3
Видео: Xvid 688x512 25.00fps 1842 Kbps
Аудио: MPEG Audio Layer 3 48000Hz stereo 128kbps
General
Complete name : F:\Sekret.idealnoj.figury.1992.XviD.DVDRip.avi
Format : AVI
Format/Info : Audio Video Interleave
File size : 1.37 GiB
Duration : 1h 38mn
Overall bit rate : 1 980 Kbps
Writing application : FairUse Wizard - http://fairusewizard.com
Writing library : The best and REALLY easy backup tool
Video
ID : 0
Format : MPEG-4 Visual
Format profile : Advanced [email protected]
Format settings, BVOP : Yes
Format settings, QPel : No
Format settings, GMC : No warppoints
Format settings, Matrix : Default (H.263)
Muxing mode : Packed bitstream
Codec ID : XVID
Codec ID/Hint : XviD
Duration : 1h 38mn
Bit rate : 1 842 Kbps
Width : 688 pixels
Height : 512 pixels
Display aspect ratio : 4:3
Frame rate : 25.000 fps
Resolution : 8 bits
Colorimetry : 4:2:0
Scan type : Progressive
Bits/(Pixel*Frame) : 0.209
Stream size : 1.27 GiB (93%)
Writing library : XviD 1.1.0 (UTC 2005-11-22)
Audio
ID : 1
Format : MPEG Audio
Format version : Version 1
Format profile : Layer 3
Mode : Joint stereo
Format_Settings_ModeExtension : MS Stereo
Codec ID : 55
Codec ID/Hint : MP3
Duration : 1h 38mn
Bit rate mode : Constant
Bit rate : 128 Kbps
Channel(s) : 2 channels
Sampling rate : 48.0 KHz
Stream size : 90.3 MiB (6%)
Alignment : Aligned on interleaves
Interleave, duration : 40 ms (1.00 video frame)
Interleave, preload duration : 504 ms
Writing library : LAME3.97b
Encoding settings : -m j -V 4 -q 2 -lowpass 17 -b 128
Download / Скачать

Хотите скачать бесплатно? Зарегистрируйтесь на сайте (ссылка на регистрацию). Pirat.ca - самый быстрый торрент трекер в рунете!

Как скачивать  ·   Что такое торрент  ·   Рейтинг и ограничения

Пост 30-Мар-2012 01:05 (спустя 2 часа 55 минут)

Топик был перенесен из форума Обучающие видео / Интерактивное Обучающее видео в форум Фитнес и аэробика

CaptRom
 

Alina23

Пост 06-Авг-2012 10:30 (спустя 4 месяца 7 дней)

[Q] 

спасибки!!!!! будем что-то делать с формами.
[Профиль]  [ЛС] 

muzon19

Лоцман

Пост 06-Ноя-2012 20:26 (спустя 3 месяца)

[Q] 

спасибо
жена может обрадуется
[Профиль]  [ЛС] 

FruTT

Корсар

2

Пост 29-Ноя-2012 22:45 (спустя 23 дня)

[Q] 


_________________
Подпись отключена за нарушение правил форума
[Профиль]  [ЛС] 

KUZNETSOVASN

Пост 09-Июн-2013 21:48 (спустя 6 месяцев 9 дней)

[Q] 

А мне стройнеть только этот ролик помогает
[Профиль]  [ЛС] 

tinni

Лоцман

Пост 30-Июн-2013 13:30 (спустя 20 дней)

[Q] 

[Профиль]  [ЛС] 

CHARLI2236

1179

Пост 27-Июл-2013 12:05 (спустя 26 дней)

[Q] 

1222

_________________
[Профиль]  [ЛС] 

zvezda_2s

Флибустьер

Пост 10-Июл-2017 12:40 (спустя 3 года 11 месяцев)

[Q] 

Жене на заметку.
[Профиль]  [ЛС] 
Показать сообщения:    
Ответить на тему

Текущее время: Сегодня 09:35

Часовой пояс: GMT + 4



Вы не можете начинать темы
Вы не можете отвечать на сообщения
Вы не можете редактировать свои сообщения
Вы не можете удалять свои сообщения
Вы не можете голосовать в опросах
Вы не можете прикреплять файлы к сообщениям
Вы не можете скачивать файлы

▼ Вниз