Уважаемый Гость!
Вы можете поддержать проект и зарегистрироваться у наших партнеров - онлайн-стратегия MyLands. При регистрации в игре Вы получите код, который сможете активировать после регистрации на pirat.ca и получить 1000 дублонов.

Ваш код:
37fd1eaca5437abdb08902536dc9a264c723d480
 
     

Вир - герой народа / Veer (Анил Шарма / Anil Sharma) [2010 г., боевик, драма, мелодрама, приключения, военный, история, HDRip] MVO

Ответить на тему
 
Автор
Сообщение

Пост 29-Мар-2012 22:58

[Q] 

erchine

Вир - герой народа / Veer
Год выпуска: 2010
Мировая премьера: 22 января 2010
Производство: Индия
Жанр: боевик, драма, мелодрама, приключения, военный, история
Продолжительность: 2:42:59
Перевод: Профессиональный (многоголосый, закадровый)
Субтитры: отсутствуют
Режиссер: Анил Шарма / Anil Sharma
В ролях
Салман Кхан, Митхун Чакраборти, Джеки Шрофф, Сохаил Кхан, Раджеш Вивек, Нина Гупта, Лиза Лазарус, Шахбааз Кхан, Ариян Ваид, Зарине Кхан
Описание
С пыльных страниц истории приходит в нашу жизнь рассказ о небывалой отваге, жестокой гордости и мучительной любви. В далеком прошлом, когда Индия превратилась в колонию Британии, завоеватели взбудоражили страну своей несправедливой политикой «разделяй и властвуй!».
Многие славные короли и набобы поддались обманчивым обещаниям и отдали свои плодородные земли и королевства иностранным захватчикам. Исключением стало отважное семейство Прит-хви Сингха, Сыновья Притхви Сингха будут драться до последней капли крови. Самый сильный и смелый — Вир.
На кону — его любовь к дочери заклятого врага Мадхавгарха, принцессе Яшодра… На кону — жажда мести за поруганную честь отца… На кону — сама жизнь Вира…
И грянул гром канонады, на поле брани отовсюду слышен звон мечей, смерть каждую секунду уносит сотни жизней. И когда пыль осядет на окропленную кровью землю, всего один воин восстанет с высоко поднятой головой — Вир!

Источник/Качество: HDRip
Формат: AVI
Видео кодек: XviD
Аудио кодек: AC3
Видео: Xvid 720x304 23.98fps 1409 Kbps
Аудио: Dolby AC3 48000Hz 6ch 384kbps
General
Complete name : F:\Veer.Geroj.naroda.2010.XviD.HDRip.avi
Format : AVI
Format/Info : Audio Video Interleave
Format profile : OpenDML
File size : 2.05 GiB
Duration : 2h 42mn
Overall bit rate : 1 805 Kbps
Writing application : VirtualDubModRus 1.5.10.2 (build 2542/release)
Writing library : VirtualDubMod build 2542/release
Video
ID : 0
Format : MPEG-4 Visual
Format profile : Advanced [email protected]
Format settings, BVOP : Yes
Format settings, QPel : No
Format settings, GMC : No warppoints
Format settings, Matrix : Default (MPEG)
Codec ID : XVID
Codec ID/Hint : XviD
Duration : 2h 42mn
Bit rate : 1 409 Kbps
Width : 720 pixels
Height : 304 pixels
Display aspect ratio : 2.35:1
Frame rate : 23.976 fps
Resolution : 8 bits
Colorimetry : 4:2:0
Scan type : Progressive
Bits/(Pixel*Frame) : 0.268
Stream size : 1.60 GiB (78%)
Writing library : XviD 1.2.1 (UTC 2008-12-04)
Audio
ID : 1
Format : AC-3
Format/Info : Audio Coding 3
Format_Settings_ModeExtension : CM (complete main)
Codec ID : 2000
Duration : 2h 42mn
Bit rate mode : Constant
Bit rate : 384 Kbps
Channel(s) : 6 channels
Channel positions : Front: L C R, Side: L R, LFE
Sampling rate : 48.0 KHz
Stream size : 448 MiB (21%)
Alignment : Split accross interleaves
Interleave, duration : 42 ms (1.00 video frame)
Interleave, preload duration : 500 ms
Download / Скачать

Хотите скачать бесплатно? Зарегистрируйтесь на сайте (ссылка на регистрацию). Pirat.ca - самый быстрый торрент трекер в рунете!

Как скачивать  ·   Что такое торрент  ·   Рейтинг и ограничения

Пост 29-Мар-2012 23:29 (спустя 30 минут)

Топик был перенесен из форума Художественные фильмы (Зарубежное кино) в форум Современное кино (с 2000 г.)

Linnan
 

kernels

Штурман

Пост 30-Мар-2012 01:22 (спустя 2 часа 24 минуты)

[Q] 

Почему никого нет???
[Профиль]  [ЛС] 

kernels

Штурман

Пост 30-Мар-2012 03:36 (спустя 2 часа 13 минут)

[Q] 

Как я понял сидов можно не ждать... жаль...
[Профиль]  [ЛС] 

erchine ®

45096

Пост 30-Мар-2012 07:33 (спустя 3 часа)

[Q] 

Почему стыдно? Я на месте, не ругайтесь пожалуйста kernels fa
[Профиль]  [ЛС] 

kernels

Штурман

Пост 01-Апр-2012 12:36 (спустя 2 дня 5 часов)

[Q] 

ну что же стою на раздаче...
[Профиль]  [ЛС] 

CHARLI2236

1186

Пост 10-Апр-2012 21:47 (спустя 9 дней)

[Q] 

спасибо

_________________
[Профиль]  [ЛС] 
Показать сообщения:    
Ответить на тему

Текущее время: Сегодня 10:28

Часовой пояс: GMT + 4



Вы не можете начинать темы
Вы не можете отвечать на сообщения
Вы не можете редактировать свои сообщения
Вы не можете удалять свои сообщения
Вы не можете голосовать в опросах
Вы не можете прикреплять файлы к сообщениям
Вы не можете скачивать файлы

▼ Вниз