Уважаемый Гость!
Вы можете поддержать проект и зарегистрироваться у наших партнеров - онлайн-стратегия MyLands. При регистрации в игре Вы получите код, который сможете активировать после регистрации на pirat.ca и получить 1000 дублонов.

Ваш код:
df03fd5a3037c68836e62bd2d1eda5886967d0c3
 
     

Бойцовский Клуб / Fight Club (Дэвид Финчер / David Fincher) [1999 г., Триллер, Драма, Боевик, Blu-Ray Rip] (Dub)

Ответить на тему
 
Автор
Сообщение

Пост 04-Дек-2011 14:46

[Q] 

mnk64_xx

Штурман

Бойцовский Клуб / Fight Club
Год выпуска: 1999
Мировая премьера: 10 сентября 1999
Российская премьера: 13 января 2000
Дата выхода DVD: 19 августа 2010
Производство: США, Германия
Жанр: Триллер, Драма, Боевик
Продолжительность: 02:19:08
Перевод: Профессиональный (полное дублирование)
Оригинальный аудиопоток: Английский
Режиссер: Дэвид Финчер / David Fincher
В ролях: Эдвард Нортон, Брэд Питт, Хелена Бонем Картер, Мит Лоуф, Зэк Гренье, Ричмонд Аркетт, Дэвид Эндрюс, Джордж Магуайр, Эжени Бондюран, Кристина Кэбот
Описание: Терзаемый хронической бессонницей и отчаянно пытающийся вырваться из мучительно скучной жизни клерк встречает некоего Тайлера Дардена, харизматического торговца мылом с извращенной философией. Тайлер уверен, что самосовершенствование — удел слабых, а саморазрушение — единственное, ради чего стоит жить.
IMDB, КиноПоиск
Источник/Качество: Blu-Ray Rip
Формат: M4V
Видео кодек: H.264
Аудио кодек: AAC
Видео: MPEG4 Video (H264) 1280x532 23.98fps
Аудио: Аудио RUS: 48 kHz, AAC, 2ch, 179 kbps - Дубляж
Аудио #2: Аудио RUS: 48 kHz, AAC, 2ch, 152 kbps - Позитив / Киномания
Аудио #3: Аудио ENG: 48 kHz, AAC, 2ch, 170 kbps - Оригинал
Субтитры: Русские, Английские
General
Complete name : F:\Fight club\Fight_Club_[pirat.ca].m4v
Format : MPEG-4
Codec ID : M4V
File size : 2.66 GiB
Duration : 2h 19mn
Overall bit rate mode : Variable
Overall bit rate : 2 737 Kbps
Movie name : Fight Club
Performer : David Fincher
Genre : Thriller
Recorded date : 1999-10-15T07:00:00Z
Encoded date : UTC 2011-11-09 06:40:29
Tagged date : UTC 2011-11-10 06:45:53
Writing application : MkvToMp4 [www.mkvtomp4.ru] version 0.216 Test
Cover : Yes
soar : David Fincher
desc : Терзаемый хронической бессонницей и отчаянно пытающийся вырваться из мучительно скучной жизни клерк встречает некоего Тайлера Дардена, харизматического торговца мылом с извращенной философией.
ldes : Терзаемый хронической бессонницей и отчаянно пытающийся вырваться из мучительно скучной жизни клерк встречает некоего Тайлера Дардена, харизматического торговца мылом с извращенной философией. Тайлер уверен, что самосовершенствование — удел слабых, а саморазрушение — единственное, ради чего стоит жить.
hdvd : 1
stik : 9
cnID : 290531770
xid : iPad:vendor_id:1999-361
iTunEXTC : mpaa|R|400|
iTunMOVI : <?xml version="1.0" encoding="UTF-8"?> / <!DOCTYPE plist PUBLIC "-//Apple//DTD PLIST 1.0//EN" "http://www.apple.com/DTDs/PropertyList-1.0.dtd"> / <plist version="1.0"> / <dict> / <key>cast</key> / <array> / <dict> / <key>name</key> / <string>Эдвард Нортон</string> / </dict> / <dict> / <key>name</key> / <string>Брэд Питт</string> / </dict> / <dict> / <key>name</key> / <string>Хелена Бонем Картер</string> / </dict> / <dict> / <key>name</key> / <string>Мит Лоуф</string> / </dict> / <dict> / <key>name</key> / <string>Зэк Гренье</string> / </dict> / <dict> / <key>name</key> / <string>Ричмонд Аркетт</string> / </dict> / <dict> / <key>name</key> / <string>Дэвид Эндрюс</string> / </dict> / <dict> / <key>name</key> / <string>Джордж Магуайр</string> / </dict> / <dict> / <key>name</key> / <string>Эжени Бондюран</string> / </dict> / <dict> / <key>name</key> / <string>Кристина Кэбот</string> / </dict> / </array> / <key>directors</key> / <array> / <dict> / <key>name</key> / <string>Дэвид Финчер</string> / </dict> / </array> / <key>producers</key> / <array> / <dict> / <key>name</key> / <string>Росс Грэйсон Белл</string> / </dict> / <dict> / <key>name</key> / <string>Чен Чаффин</string> / </dict> / <dict> / <key>name</key> / <string>Арт Линсон</string> / </dict> / </array> / <key>screenwriters</key> / <array> / <dict> / <key>name</key> / <string>Джим Улс</string> / </dict> / <dict> / <key>name</key> / <string>Чак Паланик</string> / </dict> / </array> / </dict> / </plist>
Video
ID : 1
Format : AVC
Format/Info : Advanced Video Codec
Format profile : [email protected]
Format settings, CABAC : Yes
Format settings, ReFrames : 11 frames
Codec ID : avc1
Codec ID/Info : Advanced Video Coding
Duration : 2h 19mn
Bit rate : 2 250 Kbps
Maximum bit rate : 11.3 Mbps
Width : 1 280 pixels
Height : 532 pixels
Display aspect ratio : 2.40:1
Frame rate mode : Constant
Frame rate : 23.976 fps
Color space : YUV
Chroma subsampling : 4:2:0
Bit depth : 8 bits
Scan type : Progressive
Bits/(Pixel*Frame) : 0.138
Stream size : 2.17 GiB (81%)
Writing library : x264 core 78 r1309M 4d77de8
Encoding settings : cabac=1 / ref=11 / deblock=1:-1:-1 / analyse=0x3:0x133 / me=umh / subme=10 / psy=1 / psy_rd=1.0:0.2 / mixed_ref=0 / me_range=32 / chroma_me=1 / trellis=2 / 8x8dct=1 / cqm=0 / deadzone=21,11 / chroma_qp_offset=-3 / threads=6 / nr=0 / decimate=0 / mbaff=0 / constrained_intra=0 / bframes=8 / b_pyramid=0 / b_adapt=2 / b_bias=0 / direct=3 / wpredb=1 / keyint=250 / keyint_min=25 / scenecut=40 / rc_lookahead=60 / rc=2pass / mbtree=1 / bitrate=2250 / ratetol=1.0 / qcomp=0.60 / qpmin=10 / qpmax=51 / qpstep=4 / cplxblur=20.0 / qblur=0.5 / ip_ratio=1.40 / aq=1:1.00
Language : English
Encoded date : UTC 2011-11-09 06:40:29
Tagged date : UTC 2011-11-09 06:42:45
Audio #1
ID : 2
Format : AAC
Format/Info : Advanced Audio Codec
Format profile : LC
Codec ID : 40
Duration : 2h 19mn
Bit rate mode : Variable
Bit rate : 179 Kbps
Maximum bit rate : 243 Kbps
Channel(s) : 2 channels
Channel positions : Front: L R
Sampling rate : 48.0 KHz
Compression mode : Lossy
Stream size : 178 MiB (7%)
Title : Russian stereo (DUB)
Language : Russian
Encoded date : UTC 2011-11-09 06:42:17
Tagged date : UTC 2011-11-09 06:42:45
Audio #2
ID : 3
Format : AAC
Format/Info : Advanced Audio Codec
Format profile : LC
Codec ID : 40
Duration : 2h 19mn
Bit rate mode : Variable
Bit rate : 152 Kbps
Maximum bit rate : 252 Kbps
Channel(s) : 2 channels
Channel positions : Front: L R
Sampling rate : 48.0 KHz
Compression mode : Lossy
Stream size : 151 MiB (6%)
Title : Russian stereo (MVO)
Language : Russian
Encoded date : UTC 2011-11-09 06:42:26
Tagged date : UTC 2011-11-09 06:42:45
Audio #3
ID : 4
Format : AAC
Format/Info : Advanced Audio Codec
Format profile : LC
Codec ID : 40
Duration : 2h 19mn
Bit rate mode : Variable
Bit rate : 170 Kbps
Maximum bit rate : 247 Kbps
Channel(s) : 2 channels
Channel positions : Front: L R
Sampling rate : 48.0 KHz
Compression mode : Lossy
Stream size : 169 MiB (6%)
Title : English stereo
Language : English
Encoded date : UTC 2011-11-09 06:42:35
Tagged date : UTC 2011-11-09 06:42:45
Text #1
ID : 5
Format : Timed text
Muxing mode : sbtl
Codec ID : tx3g
Duration : 2h 18mn
Bit rate mode : Variable
Bit rate : 2 bps
Stream size : 1.98 KiB (0%)
Title : Форсированные
Language : Russian
Encoded date : UTC 2011-11-09 06:42:44
Tagged date : UTC 2011-11-09 06:42:45
Text #2
ID : 6
Format : Timed text
Muxing mode : sbtl
Codec ID : tx3g
Duration : 2h 18mn
Bit rate mode : Variable
Bit rate : 117 bps
Stream size : 118 KiB (0%)
Title : Позитив-Мультимедиа
Language : Russian
Encoded date : UTC 2011-11-09 06:42:44
Tagged date : UTC 2011-11-09 06:42:45
Text #3
ID : 7
Format : Timed text
Muxing mode : sbtl
Codec ID : tx3g
Duration : 2h 16mn
Bit rate mode : Variable
Bit rate : 127 bps
Stream size : 126 KiB (0%)
Title : Tycoon
Language : Russian
Encoded date : UTC 2011-11-09 06:42:44
Tagged date : UTC 2011-11-09 06:42:45
Text #4
ID : 8
Format : Timed text
Muxing mode : sbtl
Codec ID : tx3g
Duration : 2h 16mn
Bit rate mode : Variable
Bit rate : 83 bps
Stream size : 82.4 KiB (0%)
Language : English
Encoded date : UTC 2011-11-09 06:42:45
Tagged date : UTC 2011-11-09 06:42:45




Download / Скачать

Хотите скачать бесплатно? Зарегистрируйтесь на сайте (ссылка на регистрацию). Pirat.ca - самый быстрый торрент трекер в рунете!

Как скачивать  ·   Что такое торрент  ·   Рейтинг и ограничения

Hord

Штурман

Пост 25-Янв-2012 20:50 (спустя 1 месяц 21 день)

[Q] 

Спасибо!)
[Профиль]  [ЛС] 

eXplozivre

Штурман

Пост 22-Мар-2012 00:39 (спустя 1 месяц 27 дней)

[Q] 

Спасибо)
[Профиль]  [ЛС] 

MrBuRaTiNo

Штурман

Пост 03-Июл-2012 19:49 (спустя 3 месяца 12 дней)

[Q] 

Наверно,одно из лучших произведений в истории!
[Профиль]  [ЛС] 

Анна 341662

Корсар

11

Пост 19-Авг-2012 22:31 (спустя 1 месяц 16 дней)

[Q] 

[Профиль]  [ЛС] 

Elfrei

Штурман

Пост 08-Апр-2013 20:25 (спустя 7 месяцев 19 дней)

[Q] 

[Профиль]  [ЛС] 

FuckOOF

Корсар

Пост 16-Мар-2015 13:35 (спустя 1 год 11 месяцев)

[Q] 

будем смотреть Спасибо!!! Всем качать!!!

_________________
[url] [/url]
[Профиль]  [ЛС] 

tu6enka

Флибустьер

Пост 06-Окт-2016 01:57 (спустя 1 год 6 месяцев)

[Q] 

хотел скачать но никого(((
[Профиль]  [ЛС] 
Показать сообщения:    
Ответить на тему

Текущее время: Сегодня 17:53

Часовой пояс: GMT + 4



Вы не можете начинать темы
Вы не можете отвечать на сообщения
Вы не можете редактировать свои сообщения
Вы не можете удалять свои сообщения
Вы не можете голосовать в опросах
Вы не можете прикреплять файлы к сообщениям
Вы не можете скачивать файлы

▼ Вниз