Затерянные племена. Жизнь с племенем: Комбай, Мек, Мачигенга / World's Lost Tribes. Living With The Tribes: Kombai, Mek, Machigenga (Сезон: 1-3 / Серии: 1-21) (Travel Channel) [2007-2009 г., Документальный, HDTVRip, IPTVRip] MVO

Ответить на тему
 
Автор
Сообщение

Пост 16-Апр-2012 20:43

[Q] 

UcrusPazzo

Затерянные племена. Жизнь с племенем Комбай /
World's Lost Tribes. Living With The Tribes Kombai
Год выпуска: 2007
Производство: США, MMIX The Travel Channel
Жанр: Документальный
Продолжительность серии: 00:44:00, общее время - 03:40:39
Общее время трех сезонов: 15:16:26
Перевод: Профессиональный (одноголосый, закадровый)
Субтитры: отсутствуют
Режиссер: Travel Channel
В ролях: Mark Anstice, Oliver Steeds
Описание: Двое путешественников отправляются в уникальную экспедицию в одну из наиболее удалённых точек земного шара. Их цель: жить в джунглях вместе с племенем Комбай. Жизнь этого племени почти не изменилась с каменного века. Марк Энстис и Олли Стидс будут жить как охотники, собиратели подобно Комбай, они погрузятся в абсолютно незнакомый мир. Такого ещё никто никогда не делал. Так как же далеко они зайдут?
Племя Комбай насчитывает всего 4000 человек, они живут в дали от остального мира, в тропических джунглях Западного Папуа, их жилища шаткие шалаши на деревьях, у них нет современных инструментов и даже одежды. Если наши путешественники хотят здесь выжить в течении нескольких месяцев им придётся справиться со многими серьёзными проблемами. В конце приключения они выступят в крупнейшем фестивале племени Комбай. Но значит ли это что они тоже станут истинными Комбай?
Источник/Качество: HDTVRip
Формат: AVI
Видео кодек: XviD
Аудио кодек: AC3
Видео: 720x400 (1.80:1), 25 fps, XviD build 47 ~1498 kbps avg, 0.21 bit/pixel
Аудио: 48 kHz, AC3 Dolby Digital, 2/0 (L,R) ch, ~192 kbps
Затерянные племена. Поиск племени Комбай [1 серия]
Затерянные племена. Проживание за пределами Земли [2 серия]
Затерянные племена. Дом милый дом [3 серия]
Затерянные племена. Системы правосудия [4 серия]
Затерянные племена. Отплатить за обиду [5 серия]
Общее
Формат : AVI
Формат/Информация : Audio Video Interleave
Размер файла : 537 Мбайт
Продолжительность : 44 м.
Общий поток : 1700 Кбит/сек
Программа кодирования : VirtualDubMod 1.5.10.2 (build 2540/release)
Библиотека кодирования : VirtualDubMod build 2540/release
Видео
Идентификатор : 0
Формат : MPEG-4 Visual
Профиль формата : Advanced [email protected]
Параметр BVOP формата : 2
Параметр QPel формата : Нет
Параметр GMC формата : Без точки перехода
Параметр матрицы формата : Default (H.263)
Идентификатор кодека : XVID
Идентификатор кодека/Подсказка : XviD
Продолжительность : 44 м.
Битрейт : 1498 Кбит/сек
Ширина : 720 пикселей
Высота : 400 пикселей
Соотношение сторон : 16:9
Частота кадров : 25,000 кадров/сек
Цветовое пространство : YUV
Субдискретизация насыщенности : 4:2:0
Битовая глубина : 8 бит
Тип развёртки : Прогрессивная
Метод сжатия : С потерями
Бит/(Пиксели*Кадры) : 0.208
Размер потока : 474 Мбайт (88%)
Библиотека кодирования : XviD 1.2.0.dev47 (UTC 2006-11-01)
Аудио
Идентификатор : 1
Формат : AC-3
Формат/Информация : Audio Coding 3
Расширение режима : CM (complete main)
Идентификатор кодека : 2000
Продолжительность : 44 м.
Вид битрейта : Постоянный
Битрейт : 192 Кбит/сек
Каналы : 2 канала
Расположение каналов : Front: L R
Частота : 48,0 КГц
Битовая глубина : 16 бит
Метод сжатия : С потерями
Размер потока : 60,7 Мбайт (11%)
Выравнивание : Разделение по промежуткам
Продолжительность промежутка : 40 мс. (1,00 видеокадр)
Время предзагрузки промежутка : 500 мс.
---Затерянные племена. Жизнь с племенем Мек /
Новые приключения Марка и Олли /
World's Lost Tribes. Living With The Tribes Mek
Год выпуска: 2008
Производство: США, MMIX The Travel Channel
Жанр: Документальный
Продолжительность серии: 00:44:00, общее время - 05:51:33
Перевод: Профессиональный (одноголосый, закадровый)
Субтитры: отсутствуют
Режиссер: Travel Channel
В ролях: Mark Anstice, Oliver Steeds
Описание: Британские исследователи Марк Энстис и Олли Стидс не совсем обычные экстремальные путешественники. Они отправились в уникальную экспедицию в одну из самых неизученных горных цепей на Земле. Их цель - жить вместе с загадочным племенем Мек, чей древний образ жизни практически не изменился за много тысяч лет.
Источник/Качество: IPTVRip
Формат: AVI
Видео кодек: DIVX
Аудио кодек: MP3
Видео: 720x480 (1.50:1), 25 fps, ~1598 kbps avg, 0.19 bit/pixel
Аудио: 48 kHz, MPEG Layer 3, 2 ch, ~96.00 kbps avg
Затерянные племена. Путешествие в неизведанное [1 серия]
Марк и Олли возвращаются. Теперь они прокладывают тропу в горах, не обозначенных на карте, стремясь поближе познакомиться с историей войны, колдовства и шаманства древнего племени.
Затерянные племена. Четыре суда и одна свадьба [2 серия]
Марк и Олли живут в племени мек (Западное Папуа). Они питаются шашлыком из жаб, слушают рассказы о кровной мести и принимают участие в свадьбе по-мекски.
Затерянные племена. Тайные обряды [3 серия]
Марком и Олли командует вождь племени; они страдают от бессонницы, становятся участниками погребального обряда и, пройдя инициацию, удостаиваются начленника из тыквы.
Затерянные племена. А дома лучше [4 серия]
Марк и Олли строят новый дом, получают замечание за то, что не носят свои начленники, узнают о сексуальной жизни в деревне и становятся свидетелями племенного суда над насильником.
Затерянные племена. Темные стороны меков [5 серия]
Марк и Олли спасают деревню от пожара и становятся свидетелями охоты на ведьму, которая угрожает племени. Марк привязывается к поросенку по имени Арчи.
Затерянные племена. Связующий мост [6 серия]
Племени угрожает голод. Поэтому Марк и Олли помогают туземцам перекинуть огромный подвесной мост на территорию извечных врагов племени.
Затерянные племена. Чье колдовство сильней [7 серия]
Марк и Олли посещают врагов племени. Они обнаруживают деньги и знакомятся с религиозными верованиями. Однако, вернувшись, они узнают, что одна девушка напустила на вождя порчу.
Затерянные племена. Прощание с меками [8 серия]
Марк и Олли наблюдают за тяжелыми родами в одном из самых отдаленных уголков Земли. Затем они трогательно прощаются со своей новой семьей - племенем мек.
Общее
Формат : AVI
Формат/Информация : Audio Video Interleave
Размер файла : 535 Мбайт
Продолжительность : 43 м.
Общий поток : 1705 Кбит/сек
Программа кодирования : VirtualDubMod 1.5.10.2 (build 2542/release)
Библиотека кодирования : VirtualDubMod build 2542/release
Видео
Идентификатор : 0
Формат : MPEG-4 Visual
Профиль формата : [email protected]
Параметр BVOP формата : Нет
Параметр QPel формата : Нет
Параметр GMC формата : Без точки перехода
Параметр матрицы формата : Default (H.263)
Идентификатор кодека : DIVX
Идентификатор кодека/Информация : Project Mayo
Идентификатор кодека/Подсказка : DivX 4
Продолжительность : 43 м.
Битрейт : 1599 Кбит/сек
Ширина : 720 пикселей
Высота : 480 пикселей
Соотношение сторон : 3:2
Частота кадров : 25,000 кадров/сек
Стандарт вещания : NTSC
Цветовое пространство : YUV
Субдискретизация насыщенности : 4:2:0
Битовая глубина : 8 бит
Тип развёртки : Прогрессивная
Метод сжатия : С потерями
Бит/(Пиксели*Кадры) : 0.185
Размер потока : 502 Мбайт (94%)
Библиотека кодирования : XviD 1.1.2 (UTC 2006-11-01)
Аудио
Идентификатор : 1
Формат : MPEG Audio
Версия формата : Version 1
Профиль формата : Layer 3
Идентификатор кодека : 55
Идентификатор кодека/Подсказка : MP3
Продолжительность : 43 м.
Вид битрейта : Постоянный
Битрейт : 96,0 Кбит/сек
Каналы : 2 канала
Частота : 48,0 КГц
Метод сжатия : С потерями
Размер потока : 30,1 Мбайт (6%)
Выравнивание : Соединение по промежуткам
Продолжительность промежутка : 40 мс. (1,00 видеокадр)
Время предзагрузки промежутка : 504 мс.
---Затерянные племена. Жизнь с племенем Мачигенга /
World's Lost Tribes. Living With The Tribes Machigenga
Год выпуска: 2009
Производство: США, MMIX The Travel Channel
Жанр: Документальный
Продолжительность серии: 00:44:00, общее время - 05:44:14
Перевод: Профессиональный (одноголосый, закадровый)
Субтитры: отсутствуют
Режиссер: Travel Channel
В ролях: Mark Anstice, Oliver Steeds
Описание: Двое английских исследователей изучают культуру самых диких племен на планете. Подступая к границам враждебной среды они руководствуются только доброй волей и желанием познавать новое. Это их самое серьезное путешествие - путешествие в Перу в поисках одного из самых таинственных племен амазонских джунглей: Мачигенга, которое живет в полной изоляции.
Источник/Качество: IPTVRip
Формат: AVI
Видео кодек: XviD
Аудио кодек: MP3
Видео: 720x400 (1.80:1), 25 fps, XviD build 50 ~992 kbps avg, 0.14 bit/pixel (1, 2, 3, 5, 7 серия)
Видео: 720x416 (1.73:1), 25 fps, XviD build 50 ~1009 kbps avg, 0.13 bit/pixel (4, 6, 8, серия)
Аудио: 48 kHz, MPEG Layer 3, 1 ch, ~128.00 kbps avg
Затерянные племена. Чужие в джунглях [1 серия]
Затерянные племена. Злой дух [2 серия]
Затерянные племена. Когда жилище становится домом [3 серия]
Затерянные племена. Неприятности в раю [4 серия]
Затерянные племена. Из мальчиков в мужчины [5 серия]
Затерянные племена. Потерянный рай [6 серия]
Затерянные племена. Отец невесты [7 серия]
Затерянные племена. Конец миссии [8 серия]
Общее
Формат : AVI
Формат/Информация : Audio Video Interleave
Размер файла : 351 Мбайт
Продолжительность : 43 м.
Общий поток : 1127 Кбит/сек
Программа кодирования : VirtualDubMod 1.5.4.1 (build 2178/release)
Библиотека кодирования : VirtualDubMod build 2178/release
Видео
Идентификатор : 0
Формат : MPEG-4 Visual
Профиль формата : Advanced [email protected]
Параметр BVOP формата : 1
Параметр QPel формата : Нет
Параметр GMC формата : Без точки перехода
Параметр матрицы формата : Выборочная
Идентификатор кодека : XVID
Идентификатор кодека/Подсказка : XviD
Продолжительность : 43 м.
Битрейт : 992 Кбит/сек
Ширина : 720 пикселей
Высота : 400 пикселей
Соотношение сторон : 16:9
Частота кадров : 25,000 кадров/сек
Цветовое пространство : YUV
Субдискретизация насыщенности : 4:2:0
Битовая глубина : 8 бит
Тип развёртки : Прогрессивная
Метод сжатия : С потерями
Бит/(Пиксели*Кадры) : 0.138
Размер потока : 309 Мбайт (88%)
Библиотека кодирования : XviD 1.2.1 (UTC 2008-12-04)
Аудио
Идентификатор : 1
Формат : MPEG Audio
Версия формата : Version 1
Профиль формата : Layer 3
Идентификатор кодека : 55
Идентификатор кодека/Подсказка : MP3
Продолжительность : 43 м.
Вид битрейта : Постоянный
Битрейт : 128 Кбит/сек
Каналы : 1 канал
Частота : 48,0 КГц
Метод сжатия : С потерями
Размер потока : 39,9 Мбайт (11%)
Выравнивание : Соединение по промежуткам
Продолжительность промежутка : 80 мс. (2,00 видеокадра)
Время предзагрузки промежутка : 504 мс.
Библиотека кодирования : LAME3.98r
Настройки программы : -m m -V 4 -q 2 -lowpass 20.5 -b 128
Общее
Формат : AVI
Формат/Информация : Audio Video Interleave
Размер файла : 351 Мбайт
Продолжительность : 42 м.
Общий поток : 1144 Кбит/сек
Программа кодирования : VirtualDubMod 1.5.4.1 (build 2178/release)
Библиотека кодирования : VirtualDubMod build 2178/release
Видео
Идентификатор : 0
Формат : MPEG-4 Visual
Профиль формата : Advanced [email protected]
Параметр BVOP формата : 1
Параметр QPel формата : Нет
Параметр GMC формата : Без точки перехода
Параметр матрицы формата : Выборочная
Идентификатор кодека : XVID
Идентификатор кодека/Подсказка : XviD
Продолжительность : 42 м.
Битрейт : 1009 Кбит/сек
Ширина : 720 пикселей
Высота : 416 пикселей
Соотношение сторон : 16:9
Частота кадров : 25,000 кадров/сек
Цветовое пространство : YUV
Субдискретизация насыщенности : 4:2:0
Битовая глубина : 8 бит
Тип развёртки : Прогрессивная
Метод сжатия : С потерями
Бит/(Пиксели*Кадры) : 0.135
Размер потока : 310 Мбайт (88%)
Библиотека кодирования : XviD 1.2.1 (UTC 2008-12-04)
Аудио
Идентификатор : 1
Формат : MPEG Audio
Версия формата : Version 1
Профиль формата : Layer 3
Идентификатор кодека : 55
Идентификатор кодека/Подсказка : MP3
Продолжительность : 42 м.
Вид битрейта : Постоянный
Битрейт : 128 Кбит/сек
Каналы : 1 канал
Частота : 48,0 КГц
Метод сжатия : С потерями
Размер потока : 39,3 Мбайт (11%)
Выравнивание : Соединение по промежуткам
Продолжительность промежутка : 80 мс. (2,00 видеокадра)
Время предзагрузки промежутка : 504 мс.
Библиотека кодирования : LAME3.98r
Настройки программы : -m m -V 4 -q 2 -lowpass 20.5 -b 128
Download / Скачать

Хотите скачать бесплатно? Зарегистрируйтесь на сайте (ссылка на регистрацию). Pirat.ca - самый быстрый торрент трекер в рунете!

Как скачивать  ·   Что такое торрент  ·   Рейтинг и ограничения

Показать сообщения:    
Ответить на тему

Текущее время: Сегодня 23:24

Часовой пояс: GMT + 4



Вы не можете начинать темы
Вы не можете отвечать на сообщения
Вы не можете редактировать свои сообщения
Вы не можете удалять свои сообщения
Вы не можете голосовать в опросах
Вы не можете прикреплять файлы к сообщениям
Вы не можете скачивать файлы

Майнать ▼