Уважаемый Гость!
Вы можете поддержать проект и зарегистрироваться у наших партнеров - онлайн-стратегия MyLands. При регистрации в игре Вы получите код, который сможете активировать после регистрации на pirat.ca и получить 1000 дублонов.

Ваш код:
a7e6d50e02c7e240c3b1a24bd595375edf67dc6c
 
     

Звездные войны: Войны клонов / Star wars: The Clone Wars / Сезон: 4 / Серии: 22 из 22 (Дэйв Филони / Dave Filoni) [2011, анимация, фантастика, WEB-DLRip] Dub «Невафильм»

Ответить на тему
 
Автор
Сообщение

Пост 07-Май-2012 14:17

[Q] 

kugesan

--Звездные войны: Войны клонов
Star wars: The Clone Wars
-- Год выпуска: 2012
Страна: США
Жанр: анимация, фантастика
Продолжительность: ~ 00:22:00
Перевод: Профессиональный (дублированный) - Студия "Нева"
Субтитры: Нет-Режиссёр: Дэйв Филони, Боске ЭнДжи, Роберт Далва, ...
Сценарий: Джордж Лукас, Камерон Литвак, Кристиан Тейлор, ...
Продюсер: Кэри Сильвер, Джордж Лукас, Катрин Уиндер, ...-В ролях: Том Кэйн, Ди Брэдли Бейкер, Мэтт Лантер, Джеймс Арнольд Тейлор, Мэттью Вуд, Эшли Дрейн, Кори Бертон, Катрин Табер, Терренс «Т.К.» Карсон, Йен Эберкромби, ...
Роли дублировали: Борис Смолкин Сергей Паршин Андрей Зайцев Евгений Иванов Борис Хасанов ...-Описание:
На передовых позициях межгалактической войны Добра и Зла — снова любимые герои: Энакин Скайуокер, Оби-Ван Кеноби и Падме Амидала, а также присоединившийся к ним падаван Энакина, Асока. Противостоящие им злодеи — Палпатин, граф Дуку и генерал Гривус — вынашивают план захвата Галактики. Великая Армия Республики, ведомая Йодой, Мейсом Винду, Оби-Ваном Кеноби и другими рыцарями-джедаями, сражается против Новой Армии Дроидов сепаратистов.
Начинается последняя схватка, и судьбы Вселенной вверены рыцарям-джедаям. Их подвиги станут самыми яркими эпизодами масштабных битв и подарят множество удивительных открытий.
-Озвучка: Студия "Нева"
Звук предоставил: h135
Подготовка видео: Baggio
Работа со звуком: Baggio-Качество: WEB-DLRip
Формат: AVI
Видео кодек: XviD
Аудио кодек: MP3
Видео: MPEG4, XviD, 720x400 (16/9), 23.976 fps, 1 365 Kbps (0.198 bit/pixel) (0.191 bit/pixel)
Аудио 1 (rus): 48.0 KHz, 2 ch, 128 Kbps, CBR|NevaFilm|
Аудио 2 (eng): 48.0 KHz, 2 ch, 128 Kbps, CBR

Озвучка: Студия "NevaFilm"



-

01 - Война в морских глубинах / Water Wars
02 - Атака гунганов / Gungan Attack
03 - Пленники / Prisoners
04 - Тайный враг / Shadow Warrior
05 - Гуманитарная миссия / Mercy Mission
06 - Дроиды-скитальцы / Nomad Droids
07 - Тьма на Умбаре / Darkness On Umbara
08 - Генерал / The General
09 - План несогласных / Plan Of Dissent
10 - Бойня генерала Крелла / Carnage Of Krell
11 - Похищение / Kidnapped
12 - Рабы Республики / Slaves Of The Republic
13 - Побег из Кадаво / Escape From Kadavo
14 - Друзья познаются в беде / A Friend In Need
15 - Под прикрытием / Deception
16 - Друзья и враги / Friends And Enemies
17 - Куб / The Box
18 - Кризис на Набу / Crisis On Naboo
19 - Резня / Massacre
20 - Награда / Bounty
21 - Братья / Brothers
22 - Месть / Revenge
-
-
Код:
General
Complete name : I:\ЗАКАЧКИ\Звёздные войны Войны клонов Сезон 4\The.Clone.Wars.s04e01.WEBDLRip..avi
Format : AVI
Format/Info : Audio Video Interleave
File size : 251 MiB
Duration : 21mn 25s
Overall bit rate : 1 635 Kbps
Writing application : VirtualDubMod 1.5.10.2 (build 2540/release)
Writing library : VirtualDubMod build 2540/release
Video
ID : 0
Format : MPEG-4 Visual
Format profile : Advanced [email protected]
Format settings, BVOP : 2
Format settings, QPel : No
Format settings, GMC : No warppoints
Format settings, Matrix : Default (MPEG)
Codec ID : XVID
Codec ID/Hint : XviD
Duration : 21mn 25s
Bit rate : 1 365 Kbps
Width : 720 pixels
Height : 400 pixels
Display aspect ratio : 16:9
Frame rate : 23.976 fps
Color space : YUV
Chroma subsampling : 4:2:0
Bit depth : 8 bits
Scan type : Progressive
Compression mode : Lossy
Bits/(Pixel*Frame) : 0.198
Stream size : 209 MiB (83%)
Writing library : XviD 64
Audio #1
ID : 1
Format : MPEG Audio
Format version : Version 1
Format profile : Layer 3
Mode : Joint stereo
Mode extension : MS Stereo
Codec ID : 55
Codec ID/Hint : MP3
Duration : 21mn 25s
Bit rate mode : Constant
Bit rate : 128 Kbps
Channel(s) : 2 channels
Sampling rate : 48.0 KHz
Compression mode : Lossy
Stream size : 19.6 MiB (8%)
Alignment : Aligned on interleaves
Interleave, duration : 42 ms (1.00 video frame)
Interleave, preload duration : 504 ms
Audio #2
ID : 2
Format : MPEG Audio
Format version : Version 1
Format profile : Layer 3
Mode : Joint stereo
Codec ID : 55
Codec ID/Hint : MP3
Duration : 21mn 25s
Bit rate mode : Constant
Bit rate : 128 Kbps
Channel(s) : 2 channels
Sampling rate : 48.0 KHz
Compression mode : Lossy
Stream size : 19.6 MiB (8%)
Alignment : Aligned on interleaves
Interleave, duration : 42 ms (1.00 video frame)
Interleave, preload duration : 504 ms
-
Внимание! Раздача ведётся путём добавления новых серий; при каждом добавлении создётся новый торрент. Чтобы начать докачку новой серии, пользователям необходимо сделать следующее:
  • Остановить скачивание.
  • Удалить старый торрент у себя из клиента (старые серии удалять не надо).
  • Скачать новый торрент и запустить его у себя в клиенте вместо старого, при этом указать клиенту путь в старую папку куда и должно происходить скачивание новых серий.
Ваш клиент при этом должен произвести хеширование (проверку) старой папки (если не производит сам - помогите ему сделать это), и будет докачивать только те серии которых у вас ещё нет. Старые серии при этом не удаляются, а продолжают раздаваться!
Eсли вы уже удалили старые серии, то предотвратить повторную закачку старых серий можно, отжав галочку в соответсвующих местах при запуске нового торрента. По возможности, желательно не удалять старые серии как можно дольше чтобы релизёр не столько продолжал раздавать старые серии, а смог сконцентрироваться на новых.
Download / Скачать

Хотите скачать бесплатно? Зарегистрируйтесь на сайте (ссылка на регистрацию). Pirat.ca - самый быстрый торрент трекер в рунете!

Как скачивать  ·   Что такое торрент  ·   Рейтинг и ограничения



Последний раз редактировалось: kugesan (2013-05-25 17:39), всего редактировалось 3 раз(а)

Пост 07-Май-2012 14:42 (спустя 25 минут)

Топик был перенесен из форума Мультипликация в форум Войны Клонов / The Clone Wars

erchine
 

Dac

Морской Волк

Пост 17-Окт-2014 13:17 (спустя 2 года 5 месяцев)

[Q] 

[Профиль]  [ЛС] 
Показать сообщения:    
Ответить на тему

Текущее время: Сегодня 13:19

Часовой пояс: GMT + 4



Вы не можете начинать темы
Вы не можете отвечать на сообщения
Вы не можете редактировать свои сообщения
Вы не можете удалять свои сообщения
Вы не можете голосовать в опросах
Вы не можете прикреплять файлы к сообщениям
Вы не можете скачивать файлы

▼ Вниз