Уважаемый Гость!
Вы можете поддержать проект и зарегистрироваться у наших партнеров - онлайн-стратегия MyLands. При регистрации в игре Вы получите код, который сможете активировать после регистрации на pirat.ca и получить 1000 дублонов.

Ваш код:
f08869d0061b0f24adc693b544bc2f94aac7284c
 
     

Две англичанки и континент / Les deux Anglaises et le continent (Франсуа Трюффо / François Truffaut) [1971 г., Драма, DVDRip] (MVO)

Ответить на тему
 
Автор
Сообщение

Пост 06-Дек-2011 21:45

[Q] 

Linnan

Две англичанки и континент / Les deux Anglaises et le continent
Год выпуска: 1971
Производство: Франция
Жанр: Драма
Продолжительность: 02:04:25
Перевод: Профессиональный многоголосый закадровый
Оригинальный аудиопоток: Французский
Субтитры: Русские
Режиссер: Франсуа Трюффо / François Truffaut
В ролях: Жан-Пьер Лео, Кика Маркам, Стейси Тендетер, Сильвия Марриотт, Мари Мансар, Филипп Леотар, Ирен Тунк, Марк Петерсон, Жорж Дельрю,
Описание: Начало XX века. Подающий надежды искусствовед Клод заводит знакомство с англичанкой Энн. У них не получается романа, да они к этому, кажется, и не стремятся. Как это заведено между друзьями, Энн приглашает Клода вместе провести лето на побережье.
Она искренне хочет влюбить молодого человека в свою сестру Мюриэль. Однако при первых же признаках успеха сама переходит в решительное наступление…
Источник/Качество: DVDRip
Формат: MKV
Видео кодек: XviD
Аудио кодек: AC3
Видео: 704х432, 25 fps, 1488 kbps, 0.196 b/px
Аудио: Русский 192 kbps, 2 ch, 48 КHz
Аудио #2: Французский 192 kbps, 2 ch, 48 КHz
Общее
Уникальный идентификатор : 178893762588615110704979684024770781650 (0x8695AF77E79E8D969207D387335661D2)
Полное имя : F:\Загрузки торрента\Les deux anglaises et le continent.mkv
Формат : Matroska
Версия формата : Version 2
Размер файла : 1,66 Гбайт
Продолжительность : 2 ч. 4 м.
Общий поток : 1910 Кбит/сек
Дата кодирования : UTC 2011-12-06 19:27:15
Программа кодирования : mkvmerge v2.8.0 ('The Tree') built on May 9 2009 18:02:06
Библиотека кодирования : libebml v0.7.7 + libmatroska v0.8.1
Видео
Идентификатор : 1
Формат : MPEG-4 Visual
Профиль формата : Advanced Simple@L5
Параметр BVOP формата : Да
Параметр QPel формата : Нет
Параметр GMC формата : Без точки перехода
Параметр матрицы формата : Default (H.263)
Идентификатор кодека : XVID
Идентификатор кодека/Подсказка : XviD
Продолжительность : 2 ч. 4 м.
Битрейт : 1488 Кбит/сек
Ширина : 704 пикселя
Высота : 432 пикселя
Соотношение сторон : 1,630
Частота кадров : 25,000 кадров/сек
Цветовое пространство : YUV
Субдискретизация насыщенности : 4:2:0
Битовая глубина : 8 бит
Тип развёртки : Прогрессивная
Метод сжатия : С потерями
Бит/(Пиксели*Кадры) : 0.196
Размер потока : 1,29 Гбайт (78%)
Библиотека кодирования : XviD 1.2.1 (UTC 2008-12-04)
Аудио #1
Идентификатор : 2
Формат : AC-3
Формат/Информация : Audio Coding 3
Расширение режима : CM (complete main)
Идентификатор кодека : A_AC3
Продолжительность : 2 ч. 4 м.
Вид битрейта : Постоянный
Битрейт : 192 Кбит/сек
Каналы : 2 канала
Расположение каналов : Front: L R
Частота : 48,0 КГц
Битовая глубина : 16 бит
Метод сжатия : С потерями
Размер потока : 171 Мбайт (10%)
Язык : Russian
Аудио #2
Идентификатор : 3
Формат : AC-3
Формат/Информация : Audio Coding 3
Расширение режима : CM (complete main)
Идентификатор кодека : A_AC3
Продолжительность : 2 ч. 4 м.
Вид битрейта : Постоянный
Битрейт : 192 Кбит/сек
Каналы : 2 канала
Расположение каналов : Front: L R
Частота : 48,0 КГц
Битовая глубина : 16 бит
Метод сжатия : С потерями
Размер потока : 171 Мбайт (10%)
Язык : French
Текст
Идентификатор : 4
Формат : UTF-8
Идентификатор кодека : S_TEXT/UTF8
Идентификатор кодека/Информация : UTF-8 Plain Text
Язык : Russian


Download / Скачать

Хотите скачать бесплатно? Зарегистрируйтесь на сайте (ссылка на регистрацию). Pirat.ca - самый быстрый торрент трекер в рунете!

Как скачивать  ·   Что такое торрент  ·   Рейтинг и ограничения

Пост 06-Дек-2011 22:59 (спустя 1 час 14 минут)

Топик был перенесен из форума Художественные фильмы (Зарубежное кино) в форум Основной кинофонд (1970 г. - 1999 г.)

Skinwalker
 
Показать сообщения:    
Ответить на тему

Текущее время: Сегодня 12:43

Часовой пояс: GMT + 4



Вы не можете начинать темы
Вы не можете отвечать на сообщения
Вы не можете редактировать свои сообщения
Вы не можете удалять свои сообщения
Вы не можете голосовать в опросах
Вы не можете прикреплять файлы к сообщениям
Вы не можете скачивать файлы

▼ Вниз