Уважаемый Гость!
Вы можете поддержать проект и зарегистрироваться у наших партнеров - онлайн-стратегия MyLands. При регистрации в игре Вы получите код, который сможете активировать после регистрации на pirat.ca и получить 1000 дублонов.

Ваш код:
e97448b672ad9b92bef9c116971d883e11324603
 
     

(Chanson) Бутырка - Шестой альбом - 2009, FLAC (image+.cue) , lossless

Ответить на тему
 
Автор
Сообщение

Пост 06-Июн-2012 22:09

[Q] 

Кацо.

Лоцман

Бутырка - Шестой альбом Год выпуска: 2009
Страна: Россия
Жанр: Chanson
Лейбл издания: (c)&(р) "Русский шансон"
Продолжительность: 51:04:35
Источник (релизер): Кацо.
Формат: FLAC
Битрейт аудио: lossless
Тип рипа: image+.cue
Наличие сканов в содержимом раздачи: да
1. Чечеточка
муз. В.Ждамиров, сл. О.Симонов
2. Временно
муз. В.Ждамиров, сл. О.Симонов
3. Гулял сентябрь
муз. В.Ждамиров, сл. О.Симонов
4. Твое тепло
муз. В.Ждамиров, сл. О.Симонов
5. Пересылочки
муз. В.Ждамиров, сл. О.Симонов
6. Кочегарка
муз. В.Ждамиров, сл. О.Симонов
7. Поезда (Дуэт с Яной Павловой)
муз. и сл. Ю.Алмазов
8. Осень в золоте (дуэт с Александром Вестовым)
муз. А.Нагдасов, сл. А.Вестов
9. Весточка Remix
муз. В.Ждамиров, сл.О.Симонов
10. «Девчонка с центра» Remix
муз. В.Ждамиров, сл. О.Симонов
БОНУС:
11. Михаил Бородин и гр. «Алиби» «Пули-дни»
муз. А.Нагдасов, сл. А.Вестов
12. Михаил Бородин и гр. «Алиби» «Не воровал»
муз. А.Нагдасов, сл. А.Вестов
Exact Audio Copy V0.99 prebeta 4 from 23. January 2008
Отчёт EAC об извлечении, выполненном 21. февраля 2009, 14:57
гр.БУТЫРКА / ШЕСТОЙ АЛЬБОМ
Дисковод: ASUS DRW-2014L1 Adapter: 0 ID: 0
Режим чтения : Достоверность
Использование точного потока : Да
Отключение кэша аудио : Да
Использование указателей C2 : Нет
Коррекция смещения при чтении : 6
Способность читать области Lead-in и Lead-out : Нет
Заполнение пропущенных сэмплов тишиной : Да
Удаление блоков с тишиной в начале и конце : Нет
При вычислениях CRC использовались нулевые сэмплы : Да
Интерфейс : Установленный внешний ASPI-интерфейс
Выходной формат : Внутренние WAV-операции
Формат сэмплов : 44.100 Гц; 16 бит; стерео
TOC извлечённого CD
Трек | Старт | Длительность | Начальный сектор | Конечный сектор
---------------------------------------------------------------------
1 | 0:00.00 | 3:44.31 | 0 | 16830
2 | 3:44.31 | 4:58.21 | 16831 | 39201
3 | 8:42.52 | 4:24.56 | 39202 | 59057
4 | 13:07.33 | 4:32.46 | 59058 | 79503
5 | 17:40.04 | 4:56.58 | 79504 | 101761
6 | 22:36.62 | 3:14.24 | 101762 | 116335
7 | 25:51.11 | 4:01.23 | 116336 | 134433
8 | 29:52.34 | 5:38.46 | 134434 | 159829
9 | 35:31.05 | 5:32.66 | 159830 | 184795
10 | 41:03.71 | 3:47.62 | 184796 | 201882
11 | 44:51.58 | 3:21.38 | 201883 | 216995
12 | 48:13.21 | 2:51.14 | 216996 | 229834
Характеристики диапазона извлечения и сообщения об ошибках
Выбранный диапазон
Имя файла E:\ФАЙЛЫ ТОРРЕНТЫ\гр.БУТЫРКА - ШЕСТОЙ АЛЬБОМ.wav
Пиковый уровень 97.7 %
Качество диапазона 100.0 %
CRC копии 882CD8BC
Копирование... OK
Ошибок не произошло
AccurateRip: сводка
Трек 1 нет в базе данных
Трек 2 нет в базе данных
Трек 3 нет в базе данных
Трек 4 нет в базе данных
Трек 5 нет в базе данных
Трек 6 нет в базе данных
Трек 7 нет в базе данных
Трек 8 нет в базе данных
Трек 9 нет в базе данных
Трек 10 нет в базе данных
Трек 11 нет в базе данных
Трек 12 нет в базе данных
Ни одного трека нет в базе AccurateRip
Конец отчёта
REM GENRE Chanson
REM DATE 2009
REM DISCID B20BF80C
REM COMMENT "ExactAudioCopy v0.99pb4"
PERFORMER "гр.БУТЫРКА"
TITLE "ШЕСТОЙ АЛЬБОМ"
FILE "гр.БУТЫРКА - ШЕСТОЙ АЛЬБОМ.wav" WAVE
TRACK 01 AUDIO
TITLE "Чечеточка"
PERFORMER "гр.БУТЫРКА"
INDEX 01 00:00:00
TRACK 02 AUDIO
TITLE "Временно"
PERFORMER "гр.БУТЫРКА"
INDEX 00 03:42:31
INDEX 01 03:44:31
TRACK 03 AUDIO
TITLE "Гулял сентябрь"
PERFORMER "гр.БУТЫРКА"
INDEX 00 08:40:52
INDEX 01 08:42:52
TRACK 04 AUDIO
TITLE "Твое тепло"
PERFORMER "гр.БУТЫРКА"
INDEX 00 13:05:33
INDEX 01 13:07:33
TRACK 05 AUDIO
TITLE "Пересылочки"
PERFORMER "гр.БУТЫРКА"
INDEX 00 17:38:04
INDEX 01 17:40:04
TRACK 06 AUDIO
TITLE "Кочегарка"
PERFORMER "гр.БУТЫРКА"
INDEX 00 22:34:62
INDEX 01 22:36:62
TRACK 07 AUDIO
TITLE "Поезда (дуэт с Я.Павловой)"
PERFORMER "гр.БУТЫРКА"
INDEX 00 25:49:11
INDEX 01 25:51:11
TRACK 08 AUDIO
TITLE "Осень в золоте (дуэт с А.Вестовым)"
PERFORMER "гр.БУТЫРКА"
INDEX 00 29:50:34
INDEX 01 29:52:34
TRACK 09 AUDIO
TITLE "Весточка (emix)"
PERFORMER "гр.БУТЫРКА"
INDEX 00 35:29:05
INDEX 01 35:31:05
TRACK 10 AUDIO
TITLE "Девчонка с централа (remix)"
PERFORMER "гр.БУТЫРКА"
INDEX 00 41:01:71
INDEX 01 41:03:71
TRACK 11 AUDIO
TITLE "М.Бородин и гр. Алиби - Пули-дни"
PERFORMER "гр.БУТЫРКА"
INDEX 00 44:49:58
INDEX 01 44:51:58
TRACK 12 AUDIO
TITLE "М.Бородин и гр. Алиби - Не воровал"
PERFORMER "гр.БУТЫРКА"
INDEX 00 48:11:21
INDEX 01 48:13:21
Download / Скачать

Хотите скачать бесплатно? Зарегистрируйтесь на сайте (ссылка на регистрацию). Pirat.ca - самый быстрый торрент трекер в рунете!

Как скачивать  ·   Что такое торрент  ·   Рейтинг и ограничения

nadabibak

Гроза морей

Пост 06-Июн-2012 22:42 (спустя 33 минуты)

[Q] 

Благодарю.
[Профиль]  [ЛС] 

kondi

Пост 13-Окт-2014 17:55 (спустя 2 года 4 месяца)

[Q] 

Автору респект!!!
[Профиль]  [ЛС] 

hakep

Штурман

Пост 20-Июл-2015 17:03 (спустя 9 месяцев 6 дней)

[Q] 

Одобрямс!
[Профиль]  [ЛС] 
Показать сообщения:    
Ответить на тему

Текущее время: Сегодня 21:43

Часовой пояс: GMT + 4



Вы не можете начинать темы
Вы не можете отвечать на сообщения
Вы не можете редактировать свои сообщения
Вы не можете удалять свои сообщения
Вы не можете голосовать в опросах
Вы не можете прикреплять файлы к сообщениям
Вы не можете скачивать файлы

▼ Вниз